<?xml version="1.0" standalone="no"?>
<!DOCTYPE svg PUBLIC "-//W3C//DTD SVG 1.1//EN" "http://www.w3.org/Graphics/SVG/1.1/DTD/svg11.dtd" >
<svg xmlns="http://www.w3.org/2000/svg" xmlns:xlink="http://www.w3.org/1999/xlink" version="1.1">
<metadata>
Release v1.02. (c) 2020 Braille Institute of America, Inc., a 501(c)(3) Charitable Organization. BrailleInstitute.org.
Designed by Elliott Scott, Megan Eiswerth, Linus Boman and Theodore Petrosky at Applied Design Works.

Braille Institute of America, Inc. provides Atkinson Hyperlegible for use, without derivatives or alteration, to the public free of charge for all non-commercial and commercial work. No attribution required.
</metadata>
<defs>
<font id="AtkinsonHyperlegible-Bold" horiz-adv-x="573" >
  <font-face 
    font-family="Atkinson Hyperlegible"
    font-weight="700"
    font-stretch="normal"
    units-per-em="1000"
    panose-1="0 0 0 0 0 0 0 0 0 0"
    ascent="800"
    descent="-200"
    x-height="496"
    cap-height="668"
    bbox="-70 -252 1399 911"
    underline-thickness="57"
    underline-position="-219"
    unicode-range="U+000D-25CA"
  />
<missing-glyph horiz-adv-x="527" 
d="M50 0v700h427v-700h-427zM79 21h370l-185 308zM71 49l180 301l-180 300v-601zM457 47v605l-181 -302zM263 371l186 309h-371z" />
    <glyph glyph-name=".notdef" horiz-adv-x="527" 
d="M50 0v700h427v-700h-427zM79 21h370l-185 308zM71 49l180 301l-180 300v-601zM457 47v605l-181 -302zM263 371l186 309h-371z" />
    <glyph glyph-name=".null" horiz-adv-x="0" 
 />
    <glyph glyph-name="uni000D" unicode="&#xd;" horiz-adv-x="0" 
 />
    <glyph glyph-name="space" unicode=" " horiz-adv-x="320" 
 />
    <glyph glyph-name="exclam" unicode="!" horiz-adv-x="283" 
d="M44 495v173h194v-173l-42 -252h-111zM142 -12q-40 0 -69 29t-29 69t28.5 68.5t69.5 28.5q40 0 68.5 -28.5t28.5 -68.5t-28.5 -69t-68.5 -29z" />
    <glyph glyph-name="exclam" unicode="&#xe90f;" horiz-adv-x="283" 
d="M44 495v173h194v-173l-42 -252h-111zM142 -12q-40 0 -69 29t-29 69t28.5 68.5t69.5 28.5q40 0 68.5 -28.5t28.5 -68.5t-28.5 -69t-68.5 -29z" />
    <glyph glyph-name="quotedbl" unicode="&#x22;" horiz-adv-x="410" 
d="M40 668h142l-14 -234h-114zM228 668h142l-14 -234h-113z" />
    <glyph glyph-name="quotedbl" unicode="&#xe911;" horiz-adv-x="410" 
d="M40 668h142l-14 -234h-114zM228 668h142l-14 -234h-113z" />
    <glyph glyph-name="numbersign" unicode="#" horiz-adv-x="783" 
d="M152 127h-128l20 139h128l20 135h-128l20 140h128l19 127h140l-19 -127h137l19 127h141l-19 -127h129l-21 -139h-128l-19 -135h128l-20 -140h-129l-18 -127h-141l18 127h-136l-18 -127h-141zM313 267h137l19 134h-137z" />
    <glyph glyph-name="numbersign" unicode="&#xe913;" horiz-adv-x="783" 
d="M152 127h-128l20 139h128l20 135h-128l20 140h128l19 127h140l-19 -127h137l19 127h141l-19 -127h129l-21 -139h-128l-19 -135h128l-20 -140h-129l-18 -127h-141l18 127h-136l-18 -127h-141zM313 267h137l19 134h-137z" />
    <glyph glyph-name="dollar" unicode="$" horiz-adv-x="619" 
d="M272 -10q-92 8 -155.5 51.5t-91.5 115.5l144 52q21 -73 103 -89v157l-41 9q-203 45 -203 188q0 90 71.5 142.5t172.5 61.5v69h73v-69q77 -6 136.5 -41.5t85.5 -101.5l-143 -52q-19 49 -79 65v-143l11 -2q39 -7 67.5 -14.5t63 -22.5t56.5 -34.5t37.5 -51t15.5 -71.5
q0 -93 -74 -151.5t-177 -68.5v-76h-73v77zM345 117q89 10 89 72q0 47 -89 72v-144zM190 489q0 -25 20.5 -43.5t55.5 -24.5l6 -1v132q-37 -5 -59.5 -21t-22.5 -42z" />
    <glyph glyph-name="dollar" unicode="&#xe914;" horiz-adv-x="619" 
d="M272 -10q-92 8 -155.5 51.5t-91.5 115.5l144 52q21 -73 103 -89v157l-41 9q-203 45 -203 188q0 90 71.5 142.5t172.5 61.5v69h73v-69q77 -6 136.5 -41.5t85.5 -101.5l-143 -52q-19 49 -79 65v-143l11 -2q39 -7 67.5 -14.5t63 -22.5t56.5 -34.5t37.5 -51t15.5 -71.5
q0 -93 -74 -151.5t-177 -68.5v-76h-73v77zM345 117q89 10 89 72q0 47 -89 72v-144zM190 489q0 -25 20.5 -43.5t55.5 -24.5l6 -1v132q-37 -5 -59.5 -21t-22.5 -42z" />
    <glyph glyph-name="percent" unicode="%" horiz-adv-x="977" 
d="M756 -12q-82 0 -139.5 58t-57.5 140t57.5 139t139.5 57t139.5 -57t57.5 -139t-57.5 -140t-139.5 -58zM221 286q-82 0 -139.5 57t-57.5 139t57.5 140t139.5 58q81 0 139 -58t58 -140q0 -81 -58 -138.5t-139 -57.5zM318 0h-126l467 668h127zM756 264q-32 0 -55.5 -23
t-23.5 -55q0 -33 23.5 -56t55.5 -23t55.5 23t23.5 56q0 32 -23.5 55t-55.5 23zM143 482q0 -32 23 -55t55 -23q33 0 56 23t23 55q0 33 -23 56t-56 23q-32 0 -55 -23t-23 -56z" />
    <glyph glyph-name="percent" unicode="&#xe915;" horiz-adv-x="977" 
d="M756 -12q-82 0 -139.5 58t-57.5 140t57.5 139t139.5 57t139.5 -57t57.5 -139t-57.5 -140t-139.5 -58zM221 286q-82 0 -139.5 57t-57.5 139t57.5 140t139.5 58q81 0 139 -58t58 -140q0 -81 -58 -138.5t-139 -57.5zM318 0h-126l467 668h127zM756 264q-32 0 -55.5 -23
t-23.5 -55q0 -33 23.5 -56t55.5 -23t55.5 23t23.5 56q0 32 -23.5 55t-55.5 23zM143 482q0 -32 23 -55t55 -23q33 0 56 23t23 55q0 33 -23 56t-56 23q-32 0 -55 -23t-23 -56z" />
    <glyph glyph-name="ampersand" unicode="&#x26;" horiz-adv-x="702" 
d="M24 191q0 57 39 108.5t119 85.5q-61 77 -61 151q0 75 59.5 122.5t148.5 47.5q74 0 133 -52t59 -123q0 -101 -126 -179l94 -108q40 64 57 145h127q-23 -144 -100 -244l125 -145h-176l-46 53q-107 -66 -210 -66q-104 0 -173 61t-69 143zM183 197q0 -35 29.5 -60t73.5 -25
q51 0 106 34l-126 144q-83 -32 -83 -93zM323 592q-27 0 -45 -15t-18 -40q0 -46 62 -100q72 38 72 91q0 27 -20 45.5t-51 18.5z" />
    <glyph glyph-name="ampersand" unicode="&#xe916;" horiz-adv-x="702" 
d="M24 191q0 57 39 108.5t119 85.5q-61 77 -61 151q0 75 59.5 122.5t148.5 47.5q74 0 133 -52t59 -123q0 -101 -126 -179l94 -108q40 64 57 145h127q-23 -144 -100 -244l125 -145h-176l-46 53q-107 -66 -210 -66q-104 0 -173 61t-69 143zM183 197q0 -35 29.5 -60t73.5 -25
q51 0 106 34l-126 144q-83 -32 -83 -93zM323 592q-27 0 -45 -15t-18 -40q0 -46 62 -100q72 38 72 91q0 27 -20 45.5t-51 18.5z" />
    <glyph glyph-name="quotesingle" unicode="'" horiz-adv-x="222" 
d="M40 668h142l-14 -234h-114z" />
    <glyph glyph-name="quotesingle" unicode="&#xe917;" horiz-adv-x="222" 
d="M40 668h142l-14 -234h-114z" />
    <glyph glyph-name="parenleft" unicode="(" horiz-adv-x="366" 
d="M180 -161q-145 203 -145 441q0 207 110 388h144q-113 -171 -113 -392t155 -437h-151z" />
    <glyph glyph-name="parenleft" unicode="&#xe918;" horiz-adv-x="366" 
d="M180 -161q-145 203 -145 441q0 207 110 388h144q-113 -171 -113 -392t155 -437h-151z" />
    <glyph glyph-name="parenright" unicode=")" horiz-adv-x="366" 
d="M35 -161q155 213 155 437q0 221 -113 392h144q110 -181 110 -388q0 -237 -144 -441h-152z" />
    <glyph glyph-name="parenright" unicode="&#xe919;" horiz-adv-x="366" 
d="M35 -161q155 213 155 437q0 221 -113 392h144q110 -181 110 -388q0 -237 -144 -441h-152z" />
    <glyph glyph-name="asterisk" unicode="*" horiz-adv-x="434" 
d="M383 515l-95 -31l59 -82l-71 -51l-59 81l-59 -81l-71 51l59 82l-96 31l27 83l96 -31v101h88v-101l94 31z" />
    <glyph glyph-name="asterisk" unicode="&#xe91a;" horiz-adv-x="434" 
d="M383 515l-95 -31l59 -82l-71 -51l-59 81l-59 -81l-71 51l59 82l-96 31l27 83l96 -31v101h88v-101l94 31z" />
    <glyph glyph-name="plus" unicode="+" horiz-adv-x="618" 
d="M245 184h-192v128h192v184h128v-184h192v-128h-192v-184h-128v184z" />
    <glyph glyph-name="plus" unicode="&#xe91b;" horiz-adv-x="618" 
d="M245 184h-192v128h192v184h128v-184h192v-128h-192v-184h-128v184z" />
    <glyph glyph-name="comma" unicode="," horiz-adv-x="277" 
d="M116 -9q-33 8 -54 34.5t-21 60.5q0 40 28.5 68.5t69.5 28.5q40 0 68.5 -28.5t28.5 -69.5q0 -19 -6 -35l-77 -196h-90z" />
    <glyph glyph-name="comma" unicode="&#xe91c;" horiz-adv-x="277" 
d="M116 -9q-33 8 -54 34.5t-21 60.5q0 40 28.5 68.5t69.5 28.5q40 0 68.5 -28.5t28.5 -69.5q0 -19 -6 -35l-77 -196h-90z" />
    <glyph glyph-name="hyphen" unicode="-" horiz-adv-x="408" 
d="M367 184h-326v129h326v-129z" />
    <glyph glyph-name="hyphen" unicode="&#xe91d;" horiz-adv-x="408" 
d="M367 184h-326v129h326v-129z" />
    <glyph glyph-name="period" unicode="." horiz-adv-x="277" 
d="M41 86q0 40 28.5 68.5t69.5 28.5q40 0 68.5 -28.5t28.5 -68.5t-28.5 -69t-68.5 -29q-41 0 -69.5 29t-28.5 69z" />
    <glyph glyph-name="period" unicode="&#xe91e;" horiz-adv-x="277" 
d="M41 86q0 40 28.5 68.5t69.5 28.5q40 0 68.5 -28.5t28.5 -68.5t-28.5 -69t-68.5 -29q-41 0 -69.5 29t-28.5 69z" />
    <glyph glyph-name="slash" unicode="/" horiz-adv-x="442" 
d="M15 0l261 668h151l-259 -668h-153z" />
    <glyph glyph-name="slash" unicode="&#xe91f;" horiz-adv-x="442" 
d="M15 0l261 668h151l-259 -668h-153z" />
    <glyph glyph-name="zero" unicode="0" horiz-adv-x="652" 
d="M45 335q0 163 73.5 254t212.5 91t213 -91t74 -254q0 -162 -74 -254.5t-213 -92.5q-138 0 -212 92.5t-74 254.5zM209 431q-8 -45 -8 -96q0 -117 35 -175.5t95 -58.5q50 0 81 38zM331 567q-45 0 -77 -33l201 -288q6 39 6 88q0 118 -34.5 175.5t-95.5 57.5z" />
    <glyph glyph-name="one" unicode="1" horiz-adv-x="448" 
d="M47 448v123q87 0 125 17t63 80h115v-668h-151v448h-152z" />
    <glyph glyph-name="one" unicode="&#xe920;" horiz-adv-x="448" 
d="M47 448v123q87 0 125 17t63 80h115v-668h-151v448h-152z" />
    <glyph glyph-name="two" unicode="2" horiz-adv-x="586" 
d="M34 125l43 31q49 35 77.5 55.5t80 62t80.5 72.5t52.5 70.5t23.5 71.5q0 37 -26.5 58t-65.5 21q-82 0 -102 -82l-138 50q27 69 92.5 107t154.5 38q105 0 171.5 -52t66.5 -143q0 -97 -80 -183t-236 -177h319v-125h-513v125z" />
    <glyph glyph-name="three" unicode="3" horiz-adv-x="605" 
d="M33 140l138 50q12 -46 45.5 -67.5t78.5 -21.5q48 0 75.5 23t27.5 64q0 103 -187 103v106q86 0 132.5 24t46.5 68q0 37 -30 57.5t-74 20.5q-92 0 -109 -82l-137 50q28 73 97.5 109t157.5 36q101 0 174.5 -44.5t73.5 -128.5q0 -51 -27 -92t-66 -63q47 -18 75.5 -63.5
t28.5 -93.5q0 -99 -76.5 -153t-186.5 -54q-90 0 -159.5 38t-98.5 114z" />
    <glyph glyph-name="four" unicode="4" horiz-adv-x="626" 
d="M23 252l325 416h152v-393h92v-134h-92v-141h-152v141h-325v111zM348 469l-160 -194h160v194z" />
    <glyph glyph-name="five" unicode="5" horiz-adv-x="612" 
d="M295 -12q-89 0 -156 39t-98 112l132 48q25 -86 114 -86q54 0 87.5 31.5t33.5 88.5q0 58 -34 89t-84 31q-74 0 -110 -65l-135 50l42 342h447v-124h-321l-15 -125q49 35 133 35q96 0 165 -61.5t69 -171.5t-78 -171.5t-192 -61.5z" />
    <glyph glyph-name="six" unicode="6" horiz-adv-x="632" 
d="M51 322q0 101 28 179t95 128.5t166 50.5q145 0 204 -97l-136 -49q-20 36 -78 36q-55 0 -87.5 -42t-32.5 -125q54 49 143 49q92 0 160 -67t68 -168q0 -103 -73 -166t-187 -63q-137 0 -203.5 91.5t-66.5 242.5zM212 220q0 -54 29.5 -86.5t78.5 -32.5q48 0 76.5 32t28.5 86
q0 53 -28.5 86t-77.5 33q-48 0 -77.5 -32t-29.5 -86z" />
    <glyph glyph-name="seven" unicode="7" horiz-adv-x="543" 
d="M258 0h-175l271 543h-339v125h500v-125z" />
    <glyph glyph-name="eight" unicode="8" horiz-adv-x="625" 
d="M313 -12q-122 0 -198.5 57.5t-76.5 161.5q0 59 28 98.5t86 71.5q-32 51 -32 110q0 81 54.5 137t138.5 56t138 -56t54 -137q0 -60 -33 -109q59 -33 87 -73t28 -99q0 -103 -76.5 -160.5t-197.5 -57.5zM195 206q0 -41 32.5 -66.5t85.5 -25.5q51 0 84 26t33 66
q0 41 -32.5 64.5t-84.5 23.5q-53 0 -85.5 -23.5t-32.5 -64.5zM313 555q-29 0 -49 -20t-20 -49q0 -28 20 -48.5t49 -20.5q28 0 47.5 20t19.5 49t-19.5 49t-47.5 20z" />
    <glyph glyph-name="nine" unicode="9" horiz-adv-x="561" 
d="M38 441q0 98 69.5 168t167.5 70q99 0 170 -70.5t71 -169.5q0 -53 -24 -104l-162 -335h-160l108 202q-99 0 -169.5 69.5t-70.5 169.5zM173 431q4 -41 34.5 -68.5t70.5 -27.5q43 0 73.5 30.5t30.5 73.5q0 4 -1 6v5q-4 40 -34 67t-70 27h-9q-41 -4 -68 -34t-27 -70v-9z" />
    <glyph glyph-name="colon" unicode=":" horiz-adv-x="277" 
d="M139 -12q-41 0 -69.5 29t-28.5 69t28.5 68.5t69.5 28.5q40 0 68.5 -28.5t28.5 -68.5t-28.5 -69t-68.5 -29zM139 316q-41 0 -69.5 28t-28.5 68t28.5 69t69.5 29q40 0 68.5 -29t28.5 -69t-28.5 -68t-68.5 -28z" />
    <glyph glyph-name="colon" unicode="&#xe921;" horiz-adv-x="277" 
d="M139 -12q-41 0 -69.5 29t-28.5 69t28.5 68.5t69.5 28.5q40 0 68.5 -28.5t28.5 -68.5t-28.5 -69t-68.5 -29zM139 316q-41 0 -69.5 28t-28.5 68t28.5 69t69.5 29q40 0 68.5 -29t28.5 -69t-28.5 -68t-68.5 -28z" />
    <glyph glyph-name="semicolon" unicode=";" horiz-adv-x="277" 
d="M41 86q0 40 28.5 68.5t69.5 28.5q40 0 68.5 -28.5t28.5 -68.5q0 -20 -6 -36l-77 -196h-90l53 137q-33 8 -54 34.5t-21 60.5zM41 412q0 40 28.5 69t69.5 29q40 0 68.5 -29t28.5 -69t-28.5 -68t-68.5 -28q-41 0 -69.5 28t-28.5 68z" />
    <glyph glyph-name="semicolon" unicode="&#xe922;" horiz-adv-x="277" 
d="M41 86q0 40 28.5 68.5t69.5 28.5q40 0 68.5 -28.5t28.5 -68.5q0 -20 -6 -36l-77 -196h-90l53 137q-33 8 -54 34.5t-21 60.5zM41 412q0 40 28.5 69t69.5 29q40 0 68.5 -29t28.5 -69t-28.5 -68t-68.5 -28q-41 0 -69.5 28t-28.5 68z" />
    <glyph glyph-name="less" unicode="&#x3c;" 
d="M40 200v99l493 211v-142l-324 -118l324 -120v-142z" />
    <glyph glyph-name="less" unicode="&#xe923;" 
d="M40 200v99l493 211v-142l-324 -118l324 -120v-142z" />
    <glyph glyph-name="equal" unicode="=" horiz-adv-x="618" 
d="M53 225h512v-129h-512v129zM565 283h-512v127h512v-127z" />
    <glyph glyph-name="equal" unicode="&#xe924;" horiz-adv-x="618" 
d="M53 225h512v-129h-512v129zM565 283h-512v127h512v-127z" />
    <glyph glyph-name="greater" unicode="&#x3e;" 
d="M533 200l-493 -212v142l325 120l-325 118v142l493 -211v-99z" />
    <glyph glyph-name="greater" unicode="&#xe925;" 
d="M533 200l-493 -212v142l325 120l-325 118v142l493 -211v-99z" />
    <glyph glyph-name="question" unicode="?" horiz-adv-x="614" 
d="M177 486l-137 50q28 69 98.5 106.5t170.5 37.5q107 0 181 -44t74 -127q0 -61 -32.5 -98.5t-93.5 -65.5q-54 -25 -75.5 -44.5t-22.5 -57.5h-154q0 69 23 105t82 67l38 18q26 11 39.5 18t26.5 21t13 29q0 25 -29 41t-76 16q-102 0 -126 -72zM167 86q0 40 28.5 68.5
t68.5 28.5t68.5 -28.5t28.5 -68.5q0 -41 -28.5 -69.5t-68.5 -28.5t-68.5 28.5t-28.5 69.5z" />
    <glyph glyph-name="question" unicode="&#xe926;" horiz-adv-x="614" 
d="M177 486l-137 50q28 69 98.5 106.5t170.5 37.5q107 0 181 -44t74 -127q0 -61 -32.5 -98.5t-93.5 -65.5q-54 -25 -75.5 -44.5t-22.5 -57.5h-154q0 69 23 105t82 67l38 18q26 11 39.5 18t26.5 21t13 29q0 25 -29 41t-76 16q-102 0 -126 -72zM167 86q0 40 28.5 68.5
t68.5 28.5t68.5 -28.5t28.5 -68.5q0 -41 -28.5 -69.5t-68.5 -28.5t-68.5 28.5t-28.5 69.5z" />
    <glyph glyph-name="at" unicode="@" horiz-adv-x="754" 
d="M35 334q0 143 101.5 244.5t245.5 101.5q139 0 238 -95.5t99 -234.5v-12q-4 -89 -52 -137t-108 -48q-36 0 -64.5 17.5t-40.5 48.5q-46 -64 -117 -64q-56 0 -96.5 43t-40.5 119q0 106 54.5 153.5t139.5 47.5q57 0 119 -20v-189q0 -33 15.5 -51t38.5 -18q28 0 50 26.5
t25 76.5v13q0 108 -76.5 181t-185.5 73q-115 0 -195.5 -81.5t-80.5 -195.5q0 -115 81.5 -195t197.5 -80q70 0 133 36v-78q-64 -28 -136 -28q-143 0 -244 101.5t-101 244.5zM297 319q0 -33 16 -51t39 -18q26 0 46.5 23.5t20.5 65.5v84q-22 4 -37 4q-85 0 -85 -108z" />
    <glyph glyph-name="at" unicode="&#xe92c;" horiz-adv-x="754" 
d="M35 334q0 143 101.5 244.5t245.5 101.5q139 0 238 -95.5t99 -234.5v-12q-4 -89 -52 -137t-108 -48q-36 0 -64.5 17.5t-40.5 48.5q-46 -64 -117 -64q-56 0 -96.5 43t-40.5 119q0 106 54.5 153.5t139.5 47.5q57 0 119 -20v-189q0 -33 15.5 -51t38.5 -18q28 0 50 26.5
t25 76.5v13q0 108 -76.5 181t-185.5 73q-115 0 -195.5 -81.5t-80.5 -195.5q0 -115 81.5 -195t197.5 -80q70 0 133 36v-78q-64 -28 -136 -28q-143 0 -244 101.5t-101 244.5zM297 319q0 -33 16 -51t39 -18q26 0 46.5 23.5t20.5 65.5v84q-22 4 -37 4q-85 0 -85 -108z" />
    <glyph glyph-name="A" unicode="A" horiz-adv-x="690" 
d="M5 0l253 668h174l253 -668h-172l-40 119h-256l-40 -119h-172zM344 501l-84 -254h170z" />
    <glyph glyph-name="B" unicode="B" horiz-adv-x="647" 
d="M44 668h292q121 0 187.5 -38t66.5 -136q0 -90 -79 -139q106 -36 106 -149q0 -206 -270 -206h-303v668zM348 282h-146v-151h146q50 0 76 20t26 56q0 75 -102 75zM341 539h-139v-135h139q39 0 62 18.5t23 49.5t-22.5 49t-62.5 18z" />
    <glyph glyph-name="C" unicode="C" horiz-adv-x="681" 
d="M369 -12q-156 0 -245 93t-89 253q0 158 91.5 252t246.5 94q93 0 164 -41.5t110 -113.5l-140 -51q-42 76 -139 76q-72 0 -119 -58.5t-47 -157.5q0 -102 47 -159t121 -57q102 0 142 75l139 -51q-41 -72 -115 -113t-167 -41z" />
    <glyph glyph-name="D" unicode="D" horiz-adv-x="682" 
d="M264 0h-220v668h220q387 0 387 -334t-387 -334zM202 133h65q49 0 84 7t68.5 27t51 62t17.5 105t-17.5 105.5t-51 62.5t-68.5 27.5t-84 7.5h-65v-404z" />
    <glyph glyph-name="E" unicode="E" horiz-adv-x="580" 
d="M44 0v668h514v-139h-356v-116h217v-139h-217v-135h356v-139h-514z" />
    <glyph glyph-name="F" unicode="F" horiz-adv-x="544" 
d="M44 0v668h478v-139h-320v-116h320v-139h-320v-274h-158z" />
    <glyph glyph-name="G" unicode="G" horiz-adv-x="719" 
d="M352 -12q-147 0 -232 94t-85 254q0 157 93.5 250.5t246.5 93.5q89 0 159.5 -35.5t109.5 -102.5l-136 -56q-40 64 -135 64q-75 0 -123 -56t-48 -158q0 -103 47.5 -160.5t126.5 -57.5q63 0 106 27t43 86v19h-150v128h308v-378h-104l-22 74q-64 -86 -205 -86z" />
    <glyph glyph-name="H" unicode="H" horiz-adv-x="679" 
d="M202 0h-158v668h158v-255h275v255h158v-668h-158v274h-275v-274z" />
    <glyph glyph-name="I" unicode="I" horiz-adv-x="458" 
d="M151 544h-94v124h344v-124h-92v-420h92v-124h-344v124h94v420z" />
    <glyph glyph-name="J" unicode="J" horiz-adv-x="560" 
d="M255 -12q-102 0 -165 49.5t-85 137.5l145 53q9 -49 35 -82t70 -33q52 0 77.5 33t25.5 110v412h158v-412q0 -127 -67 -197.5t-194 -70.5z" />
    <glyph glyph-name="K" unicode="K" horiz-adv-x="659" 
d="M44 668h158v-265l241 265h193l-264 -286l277 -382h-183l-196 272l-68 -75v-197h-158v668z" />
    <glyph glyph-name="L" unicode="L" horiz-adv-x="537" 
d="M202 139h320v-139h-478v668h158v-529z" />
    <glyph glyph-name="M" unicode="M" horiz-adv-x="842" 
d="M44 668h237l139 -479l141 479h237v-668h-154v525l-159 -525h-130l-158 525v-525h-153v668z" />
    <glyph glyph-name="N" unicode="N" horiz-adv-x="700" 
d="M44 668h201l258 -476v476h153v-668h-202l-258 476v-476h-152v668z" />
    <glyph glyph-name="O" unicode="O" horiz-adv-x="764" 
d="M35 334q0 155 96 250.5t250 95.5q155 0 251.5 -95.5t96.5 -250.5t-96.5 -250.5t-251.5 -95.5q-154 0 -250 95.5t-96 250.5zM202 334q0 -102 51 -159t128 -57t128.5 57t51.5 159t-51.5 159t-128.5 57t-128 -57t-51 -159z" />
    <glyph glyph-name="P" unicode="P" horiz-adv-x="634" 
d="M202 0h-158v668h257q144 0 223.5 -48t79.5 -170t-79.5 -170t-223.5 -48h-99v-232zM202 535v-172h104q62 0 96.5 19t34.5 68t-34.5 67t-96.5 18h-104z" />
    <glyph glyph-name="Q" unicode="Q" horiz-adv-x="781" 
d="M381 -12q-154 0 -250 95.5t-96 250.5t96 250.5t250 95.5q155 0 251.5 -95.5t96.5 -250.5q0 -114 -55 -199l107 -101l-83 -89l-109 103q-86 -60 -208 -60zM381 550q-77 0 -128 -57t-51 -159t51 -159t128 -57q57 0 100 31l-143 136l83 87l129 -121q11 34 11 83
q0 102 -51.5 159t-128.5 57z" />
    <glyph glyph-name="R" unicode="R" horiz-adv-x="654" 
d="M202 0h-158v668h257q69 0 121 -9.5t94.5 -31.5t65 -64t22.5 -102q0 -149 -161 -192l194 -269h-183l-181 252h-71v-252zM202 535v-151h104q63 0 97 16t34 59t-34.5 59.5t-96.5 16.5h-104z" />
    <glyph glyph-name="S" unicode="S" horiz-adv-x="619" 
d="M25 157l144 52q26 -94 146 -94q49 0 84 17t35 53q0 60 -122 84l-81 16q-203 39 -203 188q0 68 44 116.5t106 69.5t133 21q87 0 156.5 -36t99.5 -109l-143 -52q-28 70 -127 70q-47 0 -77 -17t-30 -47q0 -25 20.5 -43t55.5 -25l90 -18q40 -8 67.5 -15.5t63 -22.5t57 -34.5
t37 -50.5t15.5 -71q0 -101 -85.5 -161t-196.5 -60q-109 0 -183.5 44t-105.5 125z" />
    <glyph glyph-name="T" unicode="T" horiz-adv-x="617" 
d="M230 529h-215v139h587v-139h-215v-529h-157v529z" />
    <glyph glyph-name="U" unicode="U" horiz-adv-x="657" 
d="M41 292v376h158v-389q0 -83 26 -122.5t104 -39.5q77 0 103 39.5t26 122.5v389h158v-376q0 -157 -67 -230.5t-220 -73.5q-154 0 -221 73.5t-67 230.5z" />
    <glyph glyph-name="V" unicode="V" horiz-adv-x="656" 
d="M236 0l-226 668h164l153 -491l154 491h165l-227 -668h-183z" />
    <glyph glyph-name="W" unicode="W" horiz-adv-x="883" 
d="M171 0l-161 668h158l93 -463l98 463h164l99 -463l93 463h158l-161 -668h-169l-102 470l-101 -470h-169z" />
    <glyph glyph-name="X" unicode="X" horiz-adv-x="699" 
d="M200 0h-190l245 343l-231 325h189l136 -192l137 192h189l-231 -325l245 -343h-190l-150 211z" />
    <glyph glyph-name="Y" unicode="Y" horiz-adv-x="687" 
d="M265 260l-255 408h184l149 -257l149 257h185l-255 -408v-260h-157v260z" />
    <glyph glyph-name="Z" unicode="Z" horiz-adv-x="621" 
d="M574 547l-334 -408h349v-139h-557v121l337 408h-322v139h527v-121z" />
    <glyph glyph-name="bracketleft" unicode="[" horiz-adv-x="333" 
d="M44 -161v829h256v-116h-128v-598h128v-115h-256z" />
    <glyph glyph-name="bracketleft" unicode="&#xe927;" horiz-adv-x="333" 
d="M44 -161v829h256v-116h-128v-598h128v-115h-256z" />
    <glyph glyph-name="backslash" unicode="\" horiz-adv-x="442" 
d="M168 668l259 -668h-151l-261 668h153z" />
    <glyph glyph-name="backslash" unicode="&#xe928;" horiz-adv-x="442" 
d="M168 668l259 -668h-151l-261 668h153z" />
    <glyph glyph-name="bracketright" unicode="]" horiz-adv-x="333" 
d="M289 -161h-256v115h128v598h-128v116h256v-829z" />
    <glyph glyph-name="bracketright" unicode="&#xe929;" horiz-adv-x="333" 
d="M289 -161h-256v115h128v598h-128v116h256v-829z" />
    <glyph glyph-name="asciicircum" unicode="^" horiz-adv-x="589" 
d="M196 312h-143l185 356h113l185 -356h-143l-98 194z" />
    <glyph glyph-name="asciicircum" unicode="&#xe92a;" horiz-adv-x="589" 
d="M196 312h-143l185 356h113l185 -356h-143l-98 194z" />
    <glyph glyph-name="underscore" unicode="_" horiz-adv-x="430" 
d="M420 -128h-410v128h410v-128z" />
    <glyph glyph-name="underscore" unicode="&#xe92b;" horiz-adv-x="430" 
d="M420 -128h-410v128h410v-128z" />
    <glyph glyph-name="grave" unicode="`" horiz-adv-x="314" 
d="M72 629q-19 19 -19 42t16.5 40t39.5 17q21 0 38 -15l114 -139h-114z" />
    <glyph glyph-name="grave" unicode="&#xe932;" horiz-adv-x="314" 
d="M72 629q-19 19 -19 42t16.5 40t39.5 17q21 0 38 -15l114 -139h-114z" />
    <glyph glyph-name="a" unicode="a" horiz-adv-x="548" 
d="M19 134q0 85 85 124.5t244 51.5v19q0 78 -83 78q-71 0 -86 -59l-128 46q26 52 85.5 84t141.5 32q109 0 164.5 -49t55.5 -158v-109q0 -121 17 -194h-141l-18 60q-51 -72 -166 -72q-73 0 -122 40t-49 106zM351 220q-89 -8 -132 -23.5t-43 -51.5q0 -24 20 -38.5t50 -14.5
q50 0 77.5 26t27.5 90v12z" />
    <glyph glyph-name="b" unicode="b" horiz-adv-x="596" 
d="M50 668h152v-240q23 39 65.5 60.5t85.5 21.5q98 0 158.5 -69t60.5 -189t-61 -192t-158 -72q-44 0 -86 20t-65 59l-19 -67h-133v668zM195 249q0 -73 30.5 -108t79.5 -35q46 0 77.5 39.5t31.5 106.5q0 66 -31.5 103t-77.5 37q-48 0 -79 -35.5t-31 -107.5z" />
    <glyph glyph-name="c" unicode="c" horiz-adv-x="520" 
d="M278 -12q-121 0 -187.5 71.5t-66.5 191.5q0 117 70 188t184 71q71 0 131.5 -31t92.5 -99l-127 -46q-22 58 -88 58q-46 0 -77 -34.5t-31 -107.5q0 -75 31 -109.5t77 -34.5q61 0 89 47l124 -45q-36 -63 -95.5 -91.5t-126.5 -28.5z" />
    <glyph glyph-name="d" unicode="d" horiz-adv-x="596" 
d="M243 -12q-97 0 -158 72t-61 192t60.5 189t158.5 69q43 0 85.5 -21.5t65.5 -60.5v240h152v-474q0 -105 17 -194h-145l-20 67q-58 -79 -155 -79zM292 392q-47 0 -78.5 -37t-31.5 -103q0 -67 31.5 -106.5t78.5 -39.5q48 0 78.5 35t30.5 108q0 72 -30.5 107.5t-78.5 35.5z
" />
    <glyph glyph-name="e" unicode="e" horiz-adv-x="566" 
d="M24 251q0 116 77 187.5t189 71.5q121 0 191.5 -84t62.5 -216h-367q4 -50 37 -77t78 -27q68 0 100 37l121 -44q-38 -55 -95.5 -83t-121.5 -28q-122 0 -197 70.5t-75 192.5zM294 397q-46 0 -78.5 -24.5t-38.5 -72.5h226q-1 46 -32 71.5t-77 25.5z" />
    <glyph glyph-name="f" unicode="f" horiz-adv-x="367" 
d="M5 380v116h82v81q0 86 43.5 118.5t147.5 32.5h69v-120h-42q-41 0 -53.5 -8.5t-12.5 -36.5v-67h108v-116h-108v-380h-152v380h-82z" />
    <glyph glyph-name="g" unicode="g" horiz-adv-x="597" 
d="M24 259q0 122 62 187t147 65q48 0 91 -21.5t71 -61.5l20 68h131v-459q0 -122 -66.5 -181t-186.5 -59q-160 0 -220 118l124 45q23 -47 92 -47q106 0 106 94v89q-63 -78 -157 -78q-86 0 -150 66.5t-64 174.5zM182 267q0 -63 31 -97t79 -34q109 0 109 127q0 68 -30 98.5
t-79 30.5q-48 0 -79 -31.5t-31 -93.5z" />
    <glyph glyph-name="h" unicode="h" horiz-adv-x="572" 
d="M202 0h-152v668h152v-238q19 32 59.5 56t93.5 24q92 0 129.5 -51t37.5 -157v-302h-152v264q0 26 -1 41t-5 34t-11.5 29t-22.5 17t-36 7q-92 0 -92 -137v-255z" />
    <glyph glyph-name="i" unicode="i" horiz-adv-x="315" 
d="M24 380v116h247v-496h-153v380h-94zM195 578q-37 0 -63.5 26.5t-26.5 63.5q0 38 26.5 64t63.5 26t63.5 -26t26.5 -64q0 -37 -26.5 -63.5t-63.5 -26.5z" />
    <glyph glyph-name="j" unicode="j" horiz-adv-x="259" 
d="M-70 -41h59q40 0 53 7.5t13 31.5v498h152v-520q0 -79 -49 -108t-141 -29h-87v120zM42 668q0 38 26 64t64 26q37 0 63.5 -26.5t26.5 -63.5t-26.5 -63.5t-63.5 -26.5t-63.5 26.5t-26.5 63.5z" />
    <glyph glyph-name="k" unicode="k" horiz-adv-x="567" 
d="M50 668h152v-360l166 188h180l-194 -207l209 -289h-180l-129 180l-52 -55v-125h-152v668z" />
    <glyph glyph-name="l" unicode="l" horiz-adv-x="314" 
d="M50 140v528h152v-488q0 -34 13.5 -45t52.5 -11h43v-124h-97q-95 0 -129.5 27.5t-34.5 112.5z" />
    <glyph glyph-name="m" unicode="m" horiz-adv-x="886" 
d="M202 0h-152v496h133l19 -66q19 32 59 56t91 24q112 0 147 -83q57 83 170 83q92 0 129.5 -51.5t37.5 -156.5v-302h-152v264q0 25 -1 40.5t-5 34t-12 29t-23 17.5t-36 7q-46 0 -67 -32t-21 -98v-262h-153v264q0 26 -1 41t-5 34t-11.5 29t-21.5 17t-35 7q-90 0 -90 -133
v-259z" />
    <glyph glyph-name="n" unicode="n" horiz-adv-x="572" 
d="M50 496h133l19 -66q19 32 59.5 56t93.5 24q92 0 129.5 -51t37.5 -157v-302h-152v264q0 26 -1 41t-5 34t-11.5 29t-22.5 17t-36 7q-92 0 -92 -137v-255h-152v496z" />
    <glyph glyph-name="o" unicode="o" 
d="M24 250q0 127 75.5 193.5t187.5 66.5q110 0 186 -66.5t76 -193.5t-76 -194.5t-186 -67.5q-111 0 -187 67.5t-76 194.5zM287 392q-49 0 -78.5 -34t-29.5 -108t29 -109t79 -35q49 0 78 35t29 109t-29.5 108t-77.5 34z" />
    <glyph glyph-name="p" unicode="p" horiz-adv-x="596" 
d="M202 -161h-152v657h132l20 -68q23 39 65.5 60.5t85.5 21.5q97 0 158 -71.5t61 -190.5q0 -120 -60.5 -190t-158.5 -70q-43 0 -85.5 22t-65.5 61v-232zM195 251q0 -73 31 -109t79 -36q47 0 78 37.5t31 104.5q0 66 -31.5 105t-77.5 39q-49 0 -79.5 -34.5t-30.5 -106.5z" />
    <glyph glyph-name="q" unicode="q" horiz-adv-x="601" 
d="M243 -12q-98 0 -158.5 70t-60.5 190q0 119 61 190.5t158 71.5q43 0 85.5 -21.5t65.5 -60.5l20 68h132v-458q0 -25 2.5 -38t16 -23.5t39.5 -10.5q29 0 70 10v-131q-51 -17 -111 -17q-33 0 -60.5 7t-53.5 24t-40.5 50.5t-14.5 80.5v80q-23 -39 -65.5 -60.5t-85.5 -21.5z
M292 392q-47 0 -78.5 -39t-31.5 -105q0 -67 31.5 -104.5t78.5 -37.5q48 0 78.5 36.5t30.5 108.5t-30.5 106.5t-78.5 34.5z" />
    <glyph glyph-name="r" unicode="r" horiz-adv-x="372" 
d="M202 0h-152v496h120l27 -91q43 111 160 105v-152q-24 3 -41 3q-114 0 -114 -111v-250z" />
    <glyph glyph-name="s" unicode="s" horiz-adv-x="534" 
d="M264 -12q-88 0 -151.5 32.5t-91.5 93.5l129 47q22 -62 117 -62q39 0 66.5 12t27.5 34q0 31 -77 45l-89 15q-75 12 -118.5 50t-43.5 98q0 75 65.5 116t162.5 41q76 0 135 -27t85 -83l-128 -47q-13 46 -93 46q-82 0 -82 -40q0 -29 61 -40l92 -17q93 -17 134.5 -48.5
t41.5 -91.5q0 -84 -69 -129t-174 -45z" />
    <glyph glyph-name="t" unicode="t" horiz-adv-x="379" 
d="M13 380v116h82v124h152v-124h108v-116h-108v-200q0 -34 13 -45t51 -11h44v-124h-96q-95 0 -129.5 27.5t-34.5 112.5v240h-82z" />
    <glyph glyph-name="u" unicode="u" horiz-adv-x="570" 
d="M50 496h152v-260q0 -26 0.5 -41t4.5 -34.5t12 -29.5t22.5 -17.5t36.5 -7.5q48 0 68 30t20 99v261h153v-496h-132l-21 70q-24 -40 -57 -61t-87 -21q-95 0 -133.5 51.5t-38.5 158.5v298z" />
    <glyph glyph-name="v" unicode="v" horiz-adv-x="526" 
d="M177 0l-177 496h157l106 -338l106 338h157l-178 -496h-171z" />
    <glyph glyph-name="w" unicode="w" horiz-adv-x="723" 
d="M124 0l-124 496h150l75 -336l64 336h144l64 -336l75 336h151l-124 -496h-166l-72 356l-71 -356h-166z" />
    <glyph glyph-name="x" unicode="x" horiz-adv-x="533" 
d="M166 0h-166l184 259l-169 237h166l86 -121l85 121h166l-169 -237l184 -259h-166l-100 143z" />
    <glyph glyph-name="y" unicode="y" horiz-adv-x="518" 
d="M0 496h163l97 -310l95 310h163l-190 -496q-37 -97 -78 -129t-136 -32h-49v110h30q49 0 64 6.5t26 34.5l5 13z" />
    <glyph glyph-name="z" unicode="z" horiz-adv-x="516" 
d="M226 121h270v-121h-466v121l257 254h-243v121h438v-121z" />
    <glyph glyph-name="braceleft" unicode="{" horiz-adv-x="370" 
d="M94 97q0 50 -13.5 73t-56.5 23v123q43 0 56.5 22.5t13.5 71.5v96q0 92 47.5 127t143.5 35h51v-120h-33q-34 0 -49.5 -9t-15.5 -35v-123q0 -58 -25.5 -86t-68.5 -39v-3q43 -12 68.5 -39.5t25.5 -85.5v-125q0 -26 15.5 -35t49.5 -9h33v-120h-51q-96 0 -143.5 35.5
t-47.5 127.5v95z" />
    <glyph glyph-name="braceleft" unicode="&#xe92d;" horiz-adv-x="370" 
d="M94 97q0 50 -13.5 73t-56.5 23v123q43 0 56.5 22.5t13.5 71.5v96q0 92 47.5 127t143.5 35h51v-120h-33q-34 0 -49.5 -9t-15.5 -35v-123q0 -58 -25.5 -86t-68.5 -39v-3q43 -12 68.5 -39.5t25.5 -85.5v-125q0 -26 15.5 -35t49.5 -9h33v-120h-51q-96 0 -143.5 35.5
t-47.5 127.5v95z" />
    <glyph glyph-name="bar" unicode="|" horiz-adv-x="234" 
d="M190 -161h-146v829h146v-829z" />
    <glyph glyph-name="bar" unicode="&#xe92e;" horiz-adv-x="234" 
d="M190 -161h-146v829h146v-829z" />
    <glyph glyph-name="braceright" unicode="}" horiz-adv-x="370" 
d="M34 -161v120h34q34 0 49.5 9t15.5 35v125q0 58 25 86t68 39v3q-43 11 -68 39t-25 86v123q0 26 -15.5 35t-49.5 9h-34v120h52q96 0 143.5 -35t47.5 -127v-96q0 -49 13.5 -71.5t55.5 -22.5v-123q-42 0 -55.5 -23t-13.5 -73v-95q0 -92 -47.5 -127.5t-143.5 -35.5h-52z" />
    <glyph glyph-name="braceright" unicode="&#xe92f;" horiz-adv-x="370" 
d="M34 -161v120h34q34 0 49.5 9t15.5 35v125q0 58 25 86t68 39v3q-43 11 -68 39t-25 86v123q0 26 -15.5 35t-49.5 9h-34v120h52q96 0 143.5 -35t47.5 -127v-96q0 -49 13.5 -71.5t55.5 -22.5v-123q-42 0 -55.5 -23t-13.5 -73v-95q0 -92 -47.5 -127.5t-143.5 -35.5h-52z" />
    <glyph glyph-name="asciitilde" unicode="~" horiz-adv-x="533" 
d="M40 184q6 82 37 124t99 42q41 0 95.5 -30t75.5 -30q45 0 40 80l106 -37q-6 -82 -36.5 -124t-97.5 -42q-37 0 -91.5 30t-81.5 30q-45 0 -41 -81z" />
    <glyph glyph-name="asciitilde" unicode="&#xe930;" horiz-adv-x="533" 
d="M40 184q6 82 37 124t99 42q41 0 95.5 -30t75.5 -30q45 0 40 80l106 -37q-6 -82 -36.5 -124t-97.5 -42q-37 0 -91.5 30t-81.5 30q-45 0 -41 -81z" />
    <glyph glyph-name="uni00A0" unicode="&#xa0;" horiz-adv-x="320" 
 />
    <glyph glyph-name="exclamdown" unicode="&#xa1;" horiz-adv-x="283" 
d="M45 -161v173l41 253h111l41 -253v-173h-193zM44 421q0 41 29 69.5t69 28.5t68.5 -29t28.5 -69t-28.5 -68t-68.5 -28q-41 0 -69.5 28t-28.5 68z" />
    <glyph glyph-name="exclamdown" unicode="&#xe931;" horiz-adv-x="283" 
d="M45 -161v173l41 253h111l41 -253v-173h-193zM44 421q0 41 29 69.5t69 28.5t68.5 -29t28.5 -69t-28.5 -68t-68.5 -28q-41 0 -69.5 28t-28.5 68z" />
    <glyph glyph-name="cent" unicode="&#xa2;" horiz-adv-x="520" 
d="M244 -11q-105 10 -162.5 80t-57.5 182q0 107 60 176.5t160 80.5v63h73v-64q133 -16 185 -128l-127 -45q-17 42 -57 54v-279q39 9 58 43l124 -45q-56 -100 -183 -117v-77h-73v76zM244 383q-65 -30 -65 -133q0 -106 65 -135v268z" />
    <glyph glyph-name="cent" unicode="&#xe933;" horiz-adv-x="520" 
d="M244 -11q-105 10 -162.5 80t-57.5 182q0 107 60 176.5t160 80.5v63h73v-64q133 -16 185 -128l-127 -45q-17 42 -57 54v-279q39 9 58 43l124 -45q-56 -100 -183 -117v-77h-73v76zM244 383q-65 -30 -65 -133q0 -106 65 -135v268z" />
    <glyph glyph-name="sterling" unicode="&#xa3;" horiz-adv-x="617" 
d="M50 368h75q-43 80 -43 135q0 87 74 131.5t178 44.5q88 0 155 -38t96 -105l-136 -50q-11 37 -42 54.5t-71 17.5q-41 0 -67.5 -18.5t-26.5 -49.5q0 -12 2.5 -24t8.5 -26.5t10 -22.5t14 -25.5t13 -23.5h160v-73h-126q7 -18 7 -40q0 -74 -105 -140q33 19 84 19q27 0 75 -10.5
t68 -10.5q50 0 103 31l44 -121q-70 -35 -160 -35q-36 0 -102 18t-98 18q-70 0 -135 -36l-55 116q64 31 93.5 63.5t29.5 83.5q0 23 -10 44h-113v73z" />
    <glyph glyph-name="sterling" unicode="&#xe934;" horiz-adv-x="617" 
d="M50 368h75q-43 80 -43 135q0 87 74 131.5t178 44.5q88 0 155 -38t96 -105l-136 -50q-11 37 -42 54.5t-71 17.5q-41 0 -67.5 -18.5t-26.5 -49.5q0 -12 2.5 -24t8.5 -26.5t10 -22.5t14 -25.5t13 -23.5h160v-73h-126q7 -18 7 -40q0 -74 -105 -140q33 19 84 19q27 0 75 -10.5
t68 -10.5q50 0 103 31l44 -121q-70 -35 -160 -35q-36 0 -102 18t-98 18q-70 0 -135 -36l-55 116q64 31 93.5 63.5t29.5 83.5q0 23 -10 44h-113v73z" />
    <glyph glyph-name="currency" unicode="&#xa4;" horiz-adv-x="596" 
d="M120 446l-67 67l52 52l67 -67q57 41 126 41t126 -41l67 67l52 -52l-67 -67q40 -55 40 -125q0 -69 -40 -127l67 -67l-52 -52l-67 67q-55 -40 -126 -40t-126 40l-67 -67l-52 52l67 67q-41 57 -41 127q0 68 41 125zM199 321q0 -41 29 -70.5t70 -29.5t70 29.5t29 70.5
q0 40 -29 69t-70 29t-70 -28.5t-29 -69.5z" />
    <glyph glyph-name="currency" unicode="&#xe935;" horiz-adv-x="596" 
d="M120 446l-67 67l52 52l67 -67q57 41 126 41t126 -41l67 67l52 -52l-67 -67q40 -55 40 -125q0 -69 -40 -127l67 -67l-52 -52l-67 67q-55 -40 -126 -40t-126 40l-67 -67l-52 52l67 67q-41 57 -41 127q0 68 41 125zM199 321q0 -41 29 -70.5t70 -29.5t70 29.5t29 70.5
q0 40 -29 69t-70 29t-70 -28.5t-29 -69.5z" />
    <glyph glyph-name="yen" unicode="&#xa5;" horiz-adv-x="687" 
d="M249 286l-239 381h184l149 -256l149 256h185l-239 -381h114v-74h-130v-63h130v-74h-130v-75h-157v75h-129v74h129v63h-129v74h113z" />
    <glyph glyph-name="yen" unicode="&#xe936;" horiz-adv-x="687" 
d="M249 286l-239 381h184l149 -256l149 256h185l-239 -381h114v-74h-130v-63h130v-74h-130v-75h-157v75h-129v74h129v63h-129v74h113z" />
    <glyph glyph-name="brokenbar" unicode="&#xa6;" horiz-adv-x="216" 
d="M172 -161h-128v311h128v-311zM44 668h128v-310h-128v310z" />
    <glyph glyph-name="brokenbar" unicode="&#xe937;" horiz-adv-x="216" 
d="M172 -161h-128v311h128v-311zM44 668h128v-310h-128v310z" />
    <glyph glyph-name="section" unicode="&#xa7;" horiz-adv-x="578" 
d="M162 125q-141 68 -141 170q0 74 86 126q-39 49 -39 106q0 72 61.5 112.5t152.5 40.5q155 0 207 -112l-130 -47q-19 44 -78 44q-64 0 -64 -34q0 -27 61 -57l122 -60q78 -38 114.5 -75t36.5 -91q0 -83 -93 -134q44 -47 44 -109q0 -81 -63 -129.5t-162 -48.5
q-80 0 -134.5 36.5t-78.5 101.5l130 47q18 -68 87 -68q33 0 51.5 13.5t18.5 35.5q0 41 -74 76zM211 352q-41 -20 -41 -45q0 -19 15 -32t46 -29l125 -62q42 19 42 46q0 14 -11.5 26.5t-24.5 20t-41 21.5z" />
    <glyph glyph-name="section" unicode="&#xe938;" horiz-adv-x="578" 
d="M162 125q-141 68 -141 170q0 74 86 126q-39 49 -39 106q0 72 61.5 112.5t152.5 40.5q155 0 207 -112l-130 -47q-19 44 -78 44q-64 0 -64 -34q0 -27 61 -57l122 -60q78 -38 114.5 -75t36.5 -91q0 -83 -93 -134q44 -47 44 -109q0 -81 -63 -129.5t-162 -48.5
q-80 0 -134.5 36.5t-78.5 101.5l130 47q18 -68 87 -68q33 0 51.5 13.5t18.5 35.5q0 41 -74 76zM211 352q-41 -20 -41 -45q0 -19 15 -32t46 -29l125 -62q42 19 42 46q0 14 -11.5 26.5t-24.5 20t-41 21.5z" />
    <glyph glyph-name="dieresis" unicode="&#xa8;" horiz-adv-x="452" 
d="M59 648q0 29 21 50t50 21t49.5 -21t20.5 -50t-20.5 -49.5t-49.5 -20.5t-50 20.5t-21 49.5zM324 578q-29 0 -50 20.5t-21 49.5t21 50t50 21q28 0 48.5 -21t20.5 -50t-20 -49.5t-49 -20.5z" />
    <glyph glyph-name="copyright" unicode="&#xa9;" horiz-adv-x="798" 
d="M398 -12q-143 0 -244 101.5t-101 244.5q0 142 101.5 243.5t243.5 101.5q144 0 245.5 -101t101.5 -244t-101.5 -244.5t-245.5 -101.5zM123 334q0 -115 81 -196t194 -81q115 0 196 81t81 196q0 114 -81 195t-196 81q-113 0 -194 -81t-81 -195zM401 145q-86 0 -134.5 51.5
t-48.5 137.5q0 84 51 136t132 52q52 0 96 -22.5t67 -71.5l-92 -34q-17 43 -65 43q-33 0 -55 -25.5t-22 -77.5q0 -54 22.5 -79t54.5 -25q47 0 66 34l90 -33q-50 -86 -162 -86z" />
    <glyph glyph-name="copyright" unicode="&#xe93a;" horiz-adv-x="798" 
d="M398 -12q-143 0 -244 101.5t-101 244.5q0 142 101.5 243.5t243.5 101.5q144 0 245.5 -101t101.5 -244t-101.5 -244.5t-245.5 -101.5zM123 334q0 -115 81 -196t194 -81q115 0 196 81t81 196q0 114 -81 195t-196 81q-113 0 -194 -81t-81 -195zM401 145q-86 0 -134.5 51.5
t-48.5 137.5q0 84 51 136t132 52q52 0 96 -22.5t67 -71.5l-92 -34q-17 43 -65 43q-33 0 -55 -25.5t-22 -77.5q0 -54 22.5 -79t54.5 -25q47 0 66 34l90 -33q-50 -86 -162 -86z" />
    <glyph glyph-name="ordfeminine" unicode="&#xaa;" horiz-adv-x="395" 
d="M160 395q-50 0 -78.5 28t-28.5 68q0 39 26 59q29 23 124 34l35 4v6q0 29 -40 29q-34 0 -39 -24l-87 31q30 61 138 61q65 0 96 -27t31 -86v-60q0 -74 5 -115h-84l-9 32q-24 -40 -89 -40zM157 495q0 -28 33 -28q22 0 36 11t14 31v17l-37 -3q-46 -4 -46 -28z" />
    <glyph glyph-name="ordfeminine" unicode="&#xe93d;" horiz-adv-x="395" 
d="M160 395q-50 0 -78.5 28t-28.5 68q0 39 26 59q29 23 124 34l35 4v6q0 29 -40 29q-34 0 -39 -24l-87 31q30 61 138 61q65 0 96 -27t31 -86v-60q0 -74 5 -115h-84l-9 32q-24 -40 -89 -40zM157 495q0 -28 33 -28q22 0 36 11t14 31v17l-37 -3q-46 -4 -46 -28z" />
    <glyph glyph-name="guillemotleft" unicode="&#xab;" horiz-adv-x="669" 
d="M294 251l146 210h175l-149 -210l150 -211h-176zM53 251l148 210h173l-148 -210l149 -211h-174z" />
    <glyph glyph-name="guillemotleft" unicode="&#xe93e;" horiz-adv-x="669" 
d="M294 251l146 210h175l-149 -210l150 -211h-176zM53 251l148 210h173l-148 -210l149 -211h-174z" />
    <glyph glyph-name="logicalnot" unicode="&#xac;" horiz-adv-x="618" 
d="M53 422h512v-366h-128v239h-384v127z" />
    <glyph glyph-name="logicalnot" unicode="&#xe93f;" horiz-adv-x="618" 
d="M53 422h512v-366h-128v239h-384v127z" />
    <glyph glyph-name="registered" unicode="&#xae;" horiz-adv-x="798" 
d="M53 334q0 142 101.5 243.5t243.5 101.5q144 0 245.5 -101t101.5 -244t-101.5 -244.5t-245.5 -101.5q-143 0 -244 101.5t-101 244.5zM123 334q0 -115 81 -196t194 -81q115 0 196 81t81 196q0 114 -81 195t-196 81q-113 0 -194 -81t-81 -195zM241 161v368h151
q80 0 123.5 -25t43.5 -89q0 -81 -87 -105l107 -149h-108l-101 139h-32v-139h-97zM338 453v-78h52q68 0 68 39t-68 39h-52z" />
    <glyph glyph-name="registered" unicode="&#xe940;" horiz-adv-x="798" 
d="M53 334q0 142 101.5 243.5t243.5 101.5q144 0 245.5 -101t101.5 -244t-101.5 -244.5t-245.5 -101.5q-143 0 -244 101.5t-101 244.5zM123 334q0 -115 81 -196t194 -81q115 0 196 81t81 196q0 114 -81 195t-196 81q-113 0 -194 -81t-81 -195zM241 161v368h151
q80 0 123.5 -25t43.5 -89q0 -81 -87 -105l107 -149h-108l-101 139h-32v-139h-97zM338 453v-78h52q68 0 68 39t-68 39h-52z" />
    <glyph glyph-name="macron" unicode="&#xaf;" horiz-adv-x="405" 
d="M352 570h-299v98h299v-98z" />
    <glyph glyph-name="degree" unicode="&#xb0;" horiz-adv-x="404" 
d="M40 517q0 67 47.5 114.5t114.5 47.5t114.5 -47.5t47.5 -114.5q0 -68 -47.5 -115.5t-114.5 -47.5t-114.5 48t-47.5 115zM202 590q-30 0 -51.5 -21.5t-21.5 -51.5t21.5 -51.5t51.5 -21.5q31 0 52 21.5t21 51.5t-21 51.5t-52 21.5z" />
    <glyph glyph-name="degree" unicode="&#xe941;" horiz-adv-x="404" 
d="M40 517q0 67 47.5 114.5t114.5 47.5t114.5 -47.5t47.5 -114.5q0 -68 -47.5 -115.5t-114.5 -47.5t-114.5 48t-47.5 115zM202 590q-30 0 -51.5 -21.5t-21.5 -51.5t21.5 -51.5t51.5 -21.5q31 0 52 21.5t21 51.5t-21 51.5t-52 21.5z" />
    <glyph glyph-name="plusminus" unicode="&#xb1;" horiz-adv-x="618" 
d="M53 391h192v104h128v-104h192v-108h-192v-103h-128v103h-192v108zM565 0h-512v128h512v-128z" />
    <glyph glyph-name="plusminus" unicode="&#xe942;" horiz-adv-x="618" 
d="M53 391h192v104h128v-104h192v-108h-192v-103h-128v103h-192v108zM565 0h-512v128h512v-128z" />
    <glyph glyph-name="twosuperior" unicode="&#xb2;" horiz-adv-x="407" 
d="M53 403v81l36 25q35 23 56.5 39t49.5 39.5t42 45t14 40.5q0 17 -12 26.5t-31 9.5q-44 0 -53 -43l-91 33q32 86 149 86q63 0 102 -27.5t39 -80.5q0 -51 -37.5 -91t-121.5 -96h158v-87h-300z" />
    <glyph glyph-name="twosuperior" unicode="&#xe943;" horiz-adv-x="407" 
d="M53 403v81l36 25q35 23 56.5 39t49.5 39.5t42 45t14 40.5q0 17 -12 26.5t-31 9.5q-44 0 -53 -43l-91 33q32 86 149 86q63 0 102 -27.5t39 -80.5q0 -51 -37.5 -91t-121.5 -96h158v-87h-300z" />
    <glyph glyph-name="threesuperior" unicode="&#xb3;" horiz-adv-x="413" 
d="M203 395q-112 0 -150 83l91 33q14 -39 61 -39q50 0 50 40t-73 40h-15v84h15q65 0 65 38q0 18 -13.5 26.5t-32.5 8.5q-42 0 -54 -34l-89 33q35 77 147 77q65 0 105 -27t40 -75q0 -28 -14 -50.5t-35 -32.5q27 -10 43 -33.5t16 -56.5q0 -53 -45.5 -84t-111.5 -31z" />
    <glyph glyph-name="threesuperior" unicode="&#xe944;" horiz-adv-x="413" 
d="M203 395q-112 0 -150 83l91 33q14 -39 61 -39q50 0 50 40t-73 40h-15v84h15q65 0 65 38q0 18 -13.5 26.5t-32.5 8.5q-42 0 -54 -34l-89 33q35 77 147 77q65 0 105 -27t40 -75q0 -28 -14 -50.5t-35 -32.5q27 -10 43 -33.5t16 -56.5q0 -53 -45.5 -84t-111.5 -31z" />
    <glyph glyph-name="acute" unicode="&#xb4;" horiz-adv-x="314" 
d="M53 574l111 135q14 18 41 18q24 0 40 -16t16 -40q0 -26 -19 -42l-75 -55h-114z" />
    <glyph glyph-name="acute" unicode="&#xe9cb;" horiz-adv-x="314" 
d="M53 574l111 135q14 18 41 18q24 0 40 -16t16 -40q0 -26 -19 -42l-75 -55h-114z" />
    <glyph glyph-name="paragraph" unicode="&#xb6;" horiz-adv-x="515" 
d="M24 478q0 78 55.5 133.5t133.5 55.5h282v-67h-47v-762h-95v762h-92v-762h-95v457q-62 16 -102 66.5t-40 116.5z" />
    <glyph glyph-name="paragraph" unicode="&#xe946;" horiz-adv-x="515" 
d="M24 478q0 78 55.5 133.5t133.5 55.5h282v-67h-47v-762h-95v762h-92v-762h-95v457q-62 16 -102 66.5t-40 116.5z" />
    <glyph glyph-name="periodcentered" unicode="&#xb7;" horiz-adv-x="301" 
d="M53 248q0 40 28.5 68.5t69.5 28.5q40 0 68.5 -28.5t28.5 -68.5t-28.5 -68.5t-68.5 -28.5q-41 0 -69.5 28.5t-28.5 68.5z" />
    <glyph glyph-name="periodcentered" unicode="&#xe947;" horiz-adv-x="301" 
d="M53 248q0 40 28.5 68.5t69.5 28.5q40 0 68.5 -28.5t28.5 -68.5t-28.5 -68.5t-68.5 -28.5q-41 0 -69.5 28.5t-28.5 68.5z" />
    <glyph glyph-name="cedilla" unicode="&#xb8;" horiz-adv-x="321" 
d="M161 -187q-47 0 -88 13l16 50q24 -13 61 -13q44 0 44 27q0 26 -37 26q-12 0 -27 -5q-9 -3 -17 2q-8 4 -10 12t2 16l52 84l41 -25l-30 -48q14 3 34 3q34 0 60 -15t26 -47q0 -41 -36.5 -60.5t-90.5 -19.5z" />
    <glyph glyph-name="cedilla" unicode="&#xe9cd;" horiz-adv-x="321" 
d="M161 -187q-47 0 -88 13l16 50q24 -13 61 -13q44 0 44 27q0 26 -37 26q-12 0 -27 -5q-9 -3 -17 2q-8 4 -10 12t2 16l52 84l41 -25l-30 -48q14 3 34 3q34 0 60 -15t26 -47q0 -41 -36.5 -60.5t-90.5 -19.5z" />
    <glyph glyph-name="onesuperior" unicode="&#xb9;" horiz-adv-x="291" 
d="M53 734q48 0 72.5 8t33.5 37h79v-376h-101v244h-84v87z" />
    <glyph glyph-name="onesuperior" unicode="&#xe948;" horiz-adv-x="291" 
d="M53 734q48 0 72.5 8t33.5 37h79v-376h-101v244h-84v87z" />
    <glyph glyph-name="ordmasculine" unicode="&#xba;" horiz-adv-x="409" 
d="M57 542q0 72 43 109.5t109 37.5t108.5 -37.5t42.5 -109.5t-42.5 -109.5t-108.5 -37.5t-109 37.5t-43 109.5zM209 612q-21 0 -35 -18t-14 -52t14 -52t35 -18q22 0 35.5 18t13.5 52t-13.5 52t-35.5 18z" />
    <glyph glyph-name="ordmasculine" unicode="&#xe949;" horiz-adv-x="409" 
d="M57 542q0 72 43 109.5t109 37.5t108.5 -37.5t42.5 -109.5t-42.5 -109.5t-108.5 -37.5t-109 37.5t-43 109.5zM209 612q-21 0 -35 -18t-14 -52t14 -52t35 -18q22 0 35.5 18t13.5 52t-13.5 52t-35.5 18z" />
    <glyph glyph-name="guillemotright" unicode="&#xbb;" horiz-adv-x="669" 
d="M442 251l-148 210h174l148 -210l-148 -211h-174zM53 40l150 211l-149 210h174l147 -210l-147 -211h-175z" />
    <glyph glyph-name="guillemotright" unicode="&#xe94a;" horiz-adv-x="669" 
d="M442 251l-148 210h174l148 -210l-148 -211h-174zM53 40l150 211l-149 210h174l147 -210l-147 -211h-175z" />
    <glyph glyph-name="onequarter" unicode="&#xbc;" horiz-adv-x="853" 
d="M110 0l468 667h127l-468 -667h-127zM460 74v78l181 223h101v-214h58v-87h-58v-74h-101v74h-181zM137 535h-84v88q33 0 50 2t33.5 12t22.5 30h79v-375h-101v243zM563 161h78v95z" />
    <glyph glyph-name="onequarter" unicode="&#xe94b;" horiz-adv-x="853" 
d="M110 0l468 667h127l-468 -667h-127zM460 74v78l181 223h101v-214h58v-87h-58v-74h-101v74h-181zM137 535h-84v88q33 0 50 2t33.5 12t22.5 30h79v-375h-101v243zM563 161h78v95z" />
    <glyph glyph-name="onehalf" unicode="&#xbd;" horiz-adv-x="856" 
d="M237 0h-127l468 667h127zM502 0v81q10 7 45 30.5t55 39t46 37.5t39 41.5t13 36.5q0 40 -43 40q-44 0 -54 -43l-91 33q32 85 149 85q63 0 102.5 -27t39.5 -80q0 -51 -37.5 -90.5t-121.5 -96.5h158v-87h-300zM137 535h-84v88q33 0 50 2t33.5 12t22.5 30h79v-375h-101v243z
" />
    <glyph glyph-name="onehalf" unicode="&#xe94c;" horiz-adv-x="856" 
d="M237 0h-127l468 667h127zM502 0v81q10 7 45 30.5t55 39t46 37.5t39 41.5t13 36.5q0 40 -43 40q-44 0 -54 -43l-91 33q32 85 149 85q63 0 102.5 -27t39.5 -80q0 -51 -37.5 -90.5t-121.5 -96.5h158v-87h-300zM137 535h-84v88q33 0 50 2t33.5 12t22.5 30h79v-375h-101v243z
" />
    <glyph glyph-name="threequarters" unicode="&#xbe;" horiz-adv-x="959" 
d="M200 0l468 667h127l-468 -667h-127zM567 152l181 223h101v-214h57v-87h-57v-74h-101v74h-181v78zM203 290q-112 0 -150 82l91 32q14 -38 61 -38q24 0 37 10.5t13 27.5q0 42 -73 42h-15v84h15q65 0 65 39q0 16 -13.5 25t-32.5 9q-42 0 -54 -34l-89 33q35 77 150 77
q62 0 102 -27t40 -75q0 -28 -14 -50.5t-35 -32.5q27 -10 43 -33.5t16 -56.5q0 -53 -45.5 -83.5t-111.5 -30.5zM748 256l-79 -95h79v95z" />
    <glyph glyph-name="threequarters" unicode="&#xe94d;" horiz-adv-x="959" 
d="M200 0l468 667h127l-468 -667h-127zM567 152l181 223h101v-214h57v-87h-57v-74h-101v74h-181v78zM203 290q-112 0 -150 82l91 32q14 -38 61 -38q24 0 37 10.5t13 27.5q0 42 -73 42h-15v84h15q65 0 65 39q0 16 -13.5 25t-32.5 9q-42 0 -54 -34l-89 33q35 77 150 77
q62 0 102 -27t40 -75q0 -28 -14 -50.5t-35 -32.5q27 -10 43 -33.5t16 -56.5q0 -53 -45.5 -83.5t-111.5 -30.5zM748 256l-79 -95h79v95z" />
    <glyph glyph-name="questiondown" unicode="&#xbf;" horiz-adv-x="614" 
d="M50 -2q0 60 32.5 97.5t93.5 66.5q54 24 75.5 44.5t22.5 58.5h154q0 -70 -23.5 -107t-86.5 -69q-10 -5 -35.5 -16t-38.5 -18t-25.5 -19.5t-12.5 -25.5q0 -28 28 -44.5t74 -16.5q105 0 129 71l137 -50q-28 -68 -98.5 -105.5t-169.5 -37.5q-107 0 -181.5 44t-74.5 127z
M350 324q-40 0 -68.5 28.5t-28.5 68.5t28.5 69t68.5 29t68.5 -28.5t28.5 -69.5t-28.5 -69t-68.5 -28z" />
    <glyph glyph-name="questiondown" unicode="&#xe94e;" horiz-adv-x="614" 
d="M50 -2q0 60 32.5 97.5t93.5 66.5q54 24 75.5 44.5t22.5 58.5h154q0 -70 -23.5 -107t-86.5 -69q-10 -5 -35.5 -16t-38.5 -18t-25.5 -19.5t-12.5 -25.5q0 -28 28 -44.5t74 -16.5q105 0 129 71l137 -50q-28 -68 -98.5 -105.5t-169.5 -37.5q-107 0 -181.5 44t-74.5 127z
M350 324q-40 0 -68.5 28.5t-28.5 68.5t28.5 69t68.5 29t68.5 -28.5t28.5 -69.5t-28.5 -69t-68.5 -28z" />
    <glyph glyph-name="Agrave" unicode="&#xc0;" horiz-adv-x="690" 
d="M177 0h-172l253 668h174l253 -668h-172l-40 119h-256zM344 501l-84 -254h170zM195 786q-20 20 -20 43q0 22 17 39t39 17q21 0 38 -15l125 -139h-125z" />
    <glyph glyph-name="Aacute" unicode="&#xc1;" horiz-adv-x="690" 
d="M177 0h-172l253 668h174l253 -668h-172l-40 119h-256zM344 501l-84 -254h170zM402 731h-125q119 133 119 134l5 5q17 15 38 15q23 0 39.5 -16.5t16.5 -39.5q0 -24 -19 -43z" />
    <glyph glyph-name="Acircumflex" unicode="&#xc2;" horiz-adv-x="690" 
d="M177 0h-172l253 668h174l253 -668h-172l-40 119h-256zM279 731h-129l147 133q22 19 49 19q28 0 49 -19l148 -133h-129l-68 61zM260 247h170l-86 254z" />
    <glyph glyph-name="Atilde" unicode="&#xc3;" horiz-adv-x="690" 
d="M177 0h-172l253 668h174l253 -668h-172l-40 119h-256zM155 731q19 115 125 115q34 0 70 -20.5t54 -20.5q24 0 43 21q18 20 36 20q26 0 37.5 -20t-1.5 -43q-15 -27 -45.5 -42t-63.5 -15q-36 0 -68 16q-6 3 -15.5 8t-13.5 7.5t-10.5 4.5t-12.5 2q-40 2 -46 -33h-89z
M344 501l-84 -254h170z" />
    <glyph glyph-name="Adieresis" unicode="&#xc4;" horiz-adv-x="690" 
d="M177 0h-172l253 668h174l253 -668h-172l-40 119h-256zM344 501l-84 -254h170zM178 796q0 29 21 50t50 21t49.5 -21t20.5 -50t-20.5 -49.5t-49.5 -20.5t-50 20.5t-21 49.5zM372 796q0 29 21 50t50 21q28 0 48.5 -21t20.5 -50t-20 -49.5t-49 -20.5t-50 20.5t-21 49.5z" />
    <glyph glyph-name="Aring" unicode="&#xc5;" horiz-adv-x="690" 
d="M5 0l242 639q-34 39 -34 90q0 55 38.5 93.5t93.5 38.5t94 -38.5t39 -93.5q0 -51 -35 -89l242 -640h-172l-40 119h-256l-40 -119h-172zM344 501l-84 -254h170zM298 729q0 -19 14 -33t33 -14t33 14t14 33t-14 33t-33 14t-33 -14t-14 -33z" />
    <glyph glyph-name="AE" unicode="&#xc6;" horiz-adv-x="1016" 
d="M177 0h-172l476 667h513v-139h-355v-115h218v-138h-218v-136h355v-139h-513v119h-224zM341 247h140v206z" />
    <glyph glyph-name="AE" unicode="&#xe953;" horiz-adv-x="1016" 
d="M177 0h-172l476 667h513v-139h-355v-115h218v-138h-218v-136h355v-139h-513v119h-224zM341 247h140v206z" />
    <glyph glyph-name="Ccedilla" unicode="&#xc7;" horiz-adv-x="681" 
d="M35 334q0 158 91.5 252t246.5 94q93 0 164 -41.5t110 -113.5l-140 -51q-42 76 -139 76q-72 0 -119 -58.5t-47 -157.5q0 -102 47 -159t121 -57q102 0 142 75l139 -51q-41 -72 -115 -113t-169 -41l-22 -36q13 3 34 3q34 0 60 -15t26 -47q0 -41 -36.5 -60.5t-90.5 -19.5
q-47 0 -88 13l16 50q24 -13 61 -13q44 0 44 27q0 26 -37 26q-12 0 -27 -5q-9 -3 -17 2q-8 4 -10 12t2 16l31 50q-131 17 -204.5 107.5t-73.5 235.5z" />
    <glyph glyph-name="Egrave" unicode="&#xc8;" horiz-adv-x="580" 
d="M44 0v668h514v-139h-356v-116h217v-139h-217v-135h356v-139h-514zM166 829q0 22 17 39t39 17q21 0 38 -15l125 -139h-125l-74 55q-20 20 -20 43z" />
    <glyph glyph-name="Eacute" unicode="&#xc9;" horiz-adv-x="580" 
d="M558 0h-514v668h514v-139h-356v-116h217v-139h-217v-135h356v-139zM220 731q119 133 119 134l5 5q17 15 38 15q23 0 39.5 -16.5t16.5 -39.5q0 -24 -19 -43l-74 -55h-125z" />
    <glyph glyph-name="Ecircumflex" unicode="&#xca;" horiz-adv-x="580" 
d="M44 668h514v-139h-356v-116h217v-139h-217v-135h356v-139h-514v668zM105 731l147 133q22 19 49 19q28 0 49 -19l148 -133h-129l-68 61l-67 -61h-129z" />
    <glyph glyph-name="Edieresis" unicode="&#xcb;" horiz-adv-x="580" 
d="M44 668h514v-139h-356v-116h217v-139h-217v-135h356v-139h-514v668zM134 796q0 29 21 50t50 21t49.5 -21t20.5 -50t-20.5 -49.5t-49.5 -20.5t-50 20.5t-21 49.5zM399 726q-29 0 -50 20.5t-21 49.5t21 50t50 21q28 0 48.5 -21t20.5 -50t-20 -49.5t-49 -20.5z" />
    <glyph glyph-name="Igrave" unicode="&#xcc;" horiz-adv-x="458" 
d="M57 668h344v-124h-92v-420h92v-124h-344v124h94v420h-94v124zM79 829q0 22 17 39t39 17q21 0 38 -15l125 -139h-125l-74 55q-20 20 -20 43z" />
    <glyph glyph-name="Iacute" unicode="&#xcd;" horiz-adv-x="458" 
d="M57 668h344v-124h-92v-420h92v-124h-344v124h94v420h-94v124zM288 731h-125q119 133 119 134l5 5q17 15 38 15q23 0 39.5 -16.5t16.5 -39.5q0 -24 -19 -43z" />
    <glyph glyph-name="Icircumflex" unicode="&#xce;" horiz-adv-x="458" 
d="M401 0h-344v124h94v420h-94v124h344v-124h-92v-420h92v-124zM33 731l147 133q22 19 49 19q28 0 49 -19l148 -133h-129l-68 61l-67 -61h-129z" />
    <glyph glyph-name="Idieresis" unicode="&#xcf;" horiz-adv-x="458" 
d="M57 0v124h94v420h-94v124h344v-124h-92v-420h92v-124h-344zM62 796q0 29 21 50t50 21t49.5 -21t20.5 -50t-20.5 -49.5t-49.5 -20.5t-50 20.5t-21 49.5zM327 726q-29 0 -50 20.5t-21 49.5t21 50t50 21q28 0 48.5 -21t20.5 -50t-20 -49.5t-49 -20.5z" />
    <glyph glyph-name="Eth" unicode="&#xd0;" horiz-adv-x="769" 
d="M13 412h118v256h220q387 0 387 -334t-387 -334h-220v275h-118v137zM289 412h77v-137h-77v-142h65q49 0 84 7t68.5 27t51 62t17.5 105t-17.5 105.5t-51 62.5t-68.5 27.5t-84 7.5h-65v-125z" />
    <glyph glyph-name="Ntilde" unicode="&#xd1;" horiz-adv-x="700" 
d="M44 668h201l258 -476v476h153v-668h-202l-258 476v-476h-152v668zM247 731h-89q19 115 125 115q34 0 70 -20.5t54 -20.5q23 0 43 21q18 20 36 20q26 0 37.5 -20t-1.5 -43q-15 -27 -45.5 -42t-63.5 -15q-36 0 -68 16q-6 3 -15.5 8t-13.5 7.5t-10.5 4.5t-12.5 2
q-40 2 -46 -33z" />
    <glyph glyph-name="Ograve" unicode="&#xd2;" horiz-adv-x="764" 
d="M381 -12q-154 0 -250 95.5t-96 250.5t96 250.5t250 95.5q155 0 251.5 -95.5t96.5 -250.5t-96.5 -250.5t-251.5 -95.5zM202 334q0 -102 51 -159t128 -57t128.5 57t51.5 159t-51.5 159t-128.5 57t-128 -57t-51 -159zM246 786q-20 20 -20 43q0 22 17 39t39 17q21 0 38 -15
l125 -139h-125z" />
    <glyph glyph-name="Oacute" unicode="&#xd3;" horiz-adv-x="764" 
d="M381 -12q-154 0 -250 95.5t-96 250.5t96 250.5t250 95.5q155 0 251.5 -95.5t96.5 -250.5t-96.5 -250.5t-251.5 -95.5zM202 334q0 -102 51 -159t128 -57t128.5 57t51.5 159t-51.5 159t-128.5 57t-128 -57t-51 -159zM320 731q119 133 119 134l5 5q17 15 38 15
q23 0 39.5 -16.5t16.5 -39.5q0 -24 -19 -43l-74 -55h-125z" />
    <glyph glyph-name="Ocircumflex" unicode="&#xd4;" horiz-adv-x="764" 
d="M35 334q0 155 96 250.5t250 95.5q155 0 251.5 -95.5t96.5 -250.5t-96.5 -250.5t-251.5 -95.5q-154 0 -250 95.5t-96 250.5zM202 334q0 -102 51 -159t128 -57t128.5 57t51.5 159t-51.5 159t-128.5 57t-128 -57t-51 -159zM316 731h-129l147 133q22 19 49 19q28 0 49 -19
l148 -133h-129l-68 61z" />
    <glyph glyph-name="Otilde" unicode="&#xd5;" horiz-adv-x="764" 
d="M35 334q0 155 96 250.5t250 95.5q155 0 251.5 -95.5t96.5 -250.5t-96.5 -250.5t-251.5 -95.5q-154 0 -250 95.5t-96 250.5zM381 550q-77 0 -128 -57t-51 -159t51 -159t128 -57t128.5 57t51.5 159t-51.5 159t-128.5 57zM281 734h-89q19 115 125 115q34 0 70 -20.5
t54 -20.5q23 0 43 21q18 20 36 20q26 0 37.5 -20.5t-1.5 -42.5q-15 -27 -45.5 -42t-63.5 -15q-36 0 -68 16q-6 3 -15.5 8t-13.5 7.5t-10.5 4.5t-12.5 2q-40 2 -46 -33z" />
    <glyph glyph-name="Odieresis" unicode="&#xd6;" horiz-adv-x="764" 
d="M35 334q0 155 96 250.5t250 95.5q155 0 251.5 -95.5t96.5 -250.5t-96.5 -250.5t-251.5 -95.5q-154 0 -250 95.5t-96 250.5zM202 334q0 -102 51 -159t128 -57t128.5 57t51.5 159t-51.5 159t-128.5 57t-128 -57t-51 -159zM215 796q0 29 21 50t50 21t49.5 -21t20.5 -50
t-20.5 -49.5t-49.5 -20.5t-50 20.5t-21 49.5zM480 726q-29 0 -50 20.5t-21 49.5t21 50t50 21q28 0 48.5 -21t20.5 -50t-20 -49.5t-49 -20.5z" />
    <glyph glyph-name="multiply" unicode="&#xd7;" horiz-adv-x="539" 
d="M498 385l-139 -137l136 -136l-91 -90l-134 136l-135 -136l-91 90l136 136l-139 137l91 91l138 -139l137 139z" />
    <glyph glyph-name="multiply" unicode="&#xe964;" horiz-adv-x="539" 
d="M498 385l-139 -137l136 -136l-91 -90l-134 136l-135 -136l-91 90l136 136l-139 137l91 91l138 -139l137 139z" />
    <glyph glyph-name="Oslash" unicode="&#xd8;" horiz-adv-x="763" 
d="M120 95q-85 93 -85 239q0 155 95.5 250t249.5 95q112 0 198 -53l45 53l56 -48l-44 -52q93 -95 93 -245q0 -155 -96.5 -250.5t-251.5 -95.5q-116 0 -204 58l-50 -58l-56 48zM272 157q48 -39 108 -39q77 0 128.5 57t51.5 159q0 74 -28 125zM380 549q-76 0 -127 -57
t-51 -158q0 -66 24 -117l257 299q-43 33 -103 33z" />
    <glyph glyph-name="Oslash" unicode="&#xe965;" horiz-adv-x="763" 
d="M120 95q-85 93 -85 239q0 155 95.5 250t249.5 95q112 0 198 -53l45 53l56 -48l-44 -52q93 -95 93 -245q0 -155 -96.5 -250.5t-251.5 -95.5q-116 0 -204 58l-50 -58l-56 48zM272 157q48 -39 108 -39q77 0 128.5 57t51.5 159q0 74 -28 125zM380 549q-76 0 -127 -57
t-51 -158q0 -66 24 -117l257 299q-43 33 -103 33z" />
    <glyph glyph-name="Ugrave" unicode="&#xd9;" horiz-adv-x="657" 
d="M41 292v376h158v-389q0 -83 26 -122.5t104 -39.5q77 0 103 39.5t26 122.5v389h158v-376q0 -157 -67 -230.5t-220 -73.5q-154 0 -221 73.5t-67 230.5zM172 829q0 22 17 39t39 17q21 0 38 -15l125 -139h-125l-74 55q-20 20 -20 43z" />
    <glyph glyph-name="Uacute" unicode="&#xda;" horiz-adv-x="657" 
d="M41 668h158v-389q0 -83 26 -122.5t104 -39.5q77 0 103 39.5t26 122.5v389h158v-376q0 -157 -67 -230.5t-220 -73.5q-154 0 -221 73.5t-67 230.5v376zM391 731h-125q119 133 119 134l5 5q17 15 38 15q23 0 39.5 -16.5t16.5 -39.5q0 -24 -19 -43z" />
    <glyph glyph-name="Ucircumflex" unicode="&#xdb;" horiz-adv-x="657" 
d="M41 292v376h158v-389q0 -83 26 -122.5t104 -39.5q77 0 103 39.5t26 122.5v389h158v-376q0 -157 -67 -230.5t-220 -73.5q-154 0 -221 73.5t-67 230.5zM261 731h-129l147 133q22 19 49 19q28 0 49 -19l148 -133h-129l-68 61z" />
    <glyph glyph-name="Udieresis" unicode="&#xdc;" horiz-adv-x="657" 
d="M329 -12q-154 0 -221 73.5t-67 230.5v376h158v-389q0 -83 26 -122.5t104 -39.5q77 0 103 39.5t26 122.5v389h158v-376q0 -157 -67 -230.5t-220 -73.5zM233 726q-29 0 -50 20.5t-21 49.5t21 50t50 21t49.5 -21t20.5 -50t-20.5 -49.5t-49.5 -20.5zM427 726q-29 0 -50 20.5
t-21 49.5t21 50t50 21q28 0 48.5 -21t20.5 -50t-20 -49.5t-49 -20.5z" />
    <glyph glyph-name="Yacute" unicode="&#xdd;" horiz-adv-x="687" 
d="M265 260l-255 408h184l149 -257l149 257h185l-255 -408v-260h-157v260zM406 731h-125q119 133 119 134l5 5q17 15 38 15q23 0 39.5 -16.5t16.5 -39.5q0 -24 -19 -43z" />
    <glyph glyph-name="Thorn" unicode="&#xde;" horiz-adv-x="623" 
d="M44 0v667h159v-105h88q69 0 120.5 -10t94 -33.5t65 -67.5t22.5 -108q0 -63 -22.5 -106.5t-65 -66.5t-94 -32.5t-120.5 -9.5h-88v-128h-159zM203 269h93q41 0 66.5 4.5t44.5 22.5t19 50q0 34 -19 52t-44 22.5t-67 4.5h-93v-156z" />
    <glyph glyph-name="Thorn" unicode="&#xe96b;" horiz-adv-x="623" 
d="M44 0v667h159v-105h88q69 0 120.5 -10t94 -33.5t65 -67.5t22.5 -108q0 -63 -22.5 -106.5t-65 -66.5t-94 -32.5t-120.5 -9.5h-88v-128h-159zM203 269h93q41 0 66.5 4.5t44.5 22.5t19 50q0 34 -19 52t-44 22.5t-67 4.5h-93v-156z" />
    <glyph glyph-name="germandbls" unicode="&#xdf;" horiz-adv-x="629" 
d="M197 0h-153v435q0 131 70 187.5t205 56.5q105 0 171.5 -48.5t66.5 -137.5q0 -78 -53 -123q95 -50 95 -166q0 -106 -65.5 -161t-176.5 -55q-25 0 -38 1l-41 134q33 -9 67 -9q40 0 69 22.5t29 61.5q0 100 -134 100h-31v117h26q106 0 106 71q0 32 -24 51t-71 19
q-69 0 -93.5 -30.5t-24.5 -101.5v-424z" />
    <glyph glyph-name="germandbls" unicode="&#xe96c;" horiz-adv-x="629" 
d="M197 0h-153v435q0 131 70 187.5t205 56.5q105 0 171.5 -48.5t66.5 -137.5q0 -78 -53 -123q95 -50 95 -166q0 -106 -65.5 -161t-176.5 -55q-25 0 -38 1l-41 134q33 -9 67 -9q40 0 69 22.5t29 61.5q0 100 -134 100h-31v117h26q106 0 106 71q0 32 -24 51t-71 19
q-69 0 -93.5 -30.5t-24.5 -101.5v-424z" />
    <glyph glyph-name="agrave" unicode="&#xe0;" horiz-adv-x="548" 
d="M19 134q0 85 85 124.5t244 51.5v19q0 78 -83 78q-71 0 -86 -59l-128 46q26 52 85.5 84t141.5 32q109 0 164.5 -49t55.5 -158v-109q0 -121 17 -194h-141l-18 60q-51 -72 -166 -72q-73 0 -122 40t-49 106zM176 145q0 -24 20 -38.5t50 -14.5q50 0 77.5 26t27.5 90v12
q-89 -8 -132 -23.5t-43 -51.5zM145 671q0 23 16.5 40t39.5 17q21 0 38 -15l114 -139h-114l-75 55q-19 19 -19 42z" />
    <glyph glyph-name="aacute" unicode="&#xe1;" horiz-adv-x="548" 
d="M190 -12q-73 0 -122 40t-49 106q0 85 85 124.5t244 51.5v19q0 78 -83 78q-71 0 -86 -59l-128 46q26 52 85.5 84t141.5 32q109 0 164.5 -49t55.5 -158v-109q0 -121 17 -194h-141l-18 60q-51 -72 -166 -72zM351 220q-89 -8 -132 -23.5t-43 -51.5q0 -24 20 -38.5t50 -14.5
q50 0 77.5 26t27.5 90v12zM345 574h-114l111 135q14 18 41 18q24 0 40 -16t16 -40q0 -26 -19 -42z" />
    <glyph glyph-name="acircumflex" unicode="&#xe2;" horiz-adv-x="548" 
d="M190 -12q-73 0 -122 40t-49 106q0 85 85 124.5t244 51.5v19q0 78 -83 78q-71 0 -86 -59l-128 46q26 52 85.5 84t141.5 32q109 0 164.5 -49t55.5 -158v-109q0 -121 17 -194h-141l-18 60q-51 -72 -166 -72zM83 574l147 132q22 20 50 20q27 0 50 -20l146 -132h-128l-68 61
l-68 -61h-129zM351 220q-89 -8 -132 -23.5t-43 -51.5q0 -24 20 -38.5t50 -14.5q50 0 77.5 26t27.5 90v12z" />
    <glyph glyph-name="atilde" unicode="&#xe3;" horiz-adv-x="548" 
d="M19 134q0 85 85 124.5t244 51.5v19q0 78 -83 78q-71 0 -86 -59l-128 46q26 52 85.5 84t141.5 32q109 0 164.5 -49t55.5 -158v-109q0 -121 17 -194h-141l-18 60q-51 -72 -166 -72q-73 0 -122 40t-49 106zM95 574q19 115 125 115q34 0 70 -20.5t54 -20.5q24 0 43 21
q18 20 36 20q26 0 37.5 -20.5t-1.5 -42.5q-15 -27 -45.5 -42t-63.5 -15q-36 0 -68 16q-6 3 -15.5 8t-13.5 7.5t-10.5 4.5t-12.5 2q-40 2 -46 -33h-89zM351 220q-89 -8 -132 -23.5t-43 -51.5q0 -24 20 -38.5t50 -14.5q50 0 77.5 26t27.5 90v12z" />
    <glyph glyph-name="adieresis" unicode="&#xe4;" horiz-adv-x="548" 
d="M19 134q0 85 85 124.5t244 51.5v19q0 78 -83 78q-71 0 -86 -59l-128 46q26 52 85.5 84t141.5 32q109 0 164.5 -49t55.5 -158v-109q0 -121 17 -194h-141l-18 60q-51 -72 -166 -72q-73 0 -122 40t-49 106zM351 220q-89 -8 -132 -23.5t-43 -51.5q0 -24 20 -38.5t50 -14.5
q50 0 77.5 26t27.5 90v12zM117 648q0 29 21 50t50 21t49.5 -21t20.5 -50t-20.5 -49.5t-49.5 -20.5t-50 20.5t-21 49.5zM311 648q0 29 21 50t50 21q28 0 48.5 -21t20.5 -50t-20 -49.5t-49 -20.5t-50 20.5t-21 49.5z" />
    <glyph glyph-name="aring" unicode="&#xe5;" horiz-adv-x="548" 
d="M19 134q0 85 85 124.5t244 51.5v19q0 78 -83 78q-71 0 -86 -59l-128 46q26 52 85.5 84t141.5 32q109 0 164.5 -49t55.5 -158v-109q0 -121 17 -194h-141l-18 60q-51 -72 -166 -72q-73 0 -122 40t-49 106zM287 535q-55 0 -93.5 39t-38.5 94t38.5 93.5t93.5 38.5t94 -38.5
t39 -93.5t-39 -94t-94 -39zM351 220q-89 -8 -132 -23.5t-43 -51.5q0 -24 20 -38.5t50 -14.5q50 0 77.5 26t27.5 90v12zM240 668q0 -20 14 -33.5t33 -13.5t33 13.5t14 33.5t-14 33.5t-33 13.5t-33 -13.5t-14 -33.5z" />
    <glyph glyph-name="ae" unicode="&#xe6;" horiz-adv-x="878" 
d="M190 -11q-74 6 -122.5 44t-48.5 102q0 165 329 165v29q0 78 -83 78q-71 0 -86 -59l-128 46q26 52 85.5 84t141.5 32q110 0 164 -48q68 48 158 48q122 0 193 -84t63 -217h-368q3 -50 36 -76.5t78 -26.5q68 0 102 37l120 -44q-37 -55 -95 -83t-122 -28q-131 0 -207 79
q-12 -14 -18 -20q-32 -31 -83.5 -47t-108.5 -11zM604 396q-45 0 -78 -24.5t-39 -72.5h227q-1 46 -32 71.5t-78 25.5zM351 209q-90 1 -132.5 -11.5t-42.5 -49.5q0 -24 20 -40.5t50 -16.5q105 0 105 117v1z" />
    <glyph glyph-name="ae" unicode="&#xe973;" horiz-adv-x="878" 
d="M190 -11q-74 6 -122.5 44t-48.5 102q0 165 329 165v29q0 78 -83 78q-71 0 -86 -59l-128 46q26 52 85.5 84t141.5 32q110 0 164 -48q68 48 158 48q122 0 193 -84t63 -217h-368q3 -50 36 -76.5t78 -26.5q68 0 102 37l120 -44q-37 -55 -95 -83t-122 -28q-131 0 -207 79
q-12 -14 -18 -20q-32 -31 -83.5 -47t-108.5 -11zM604 396q-45 0 -78 -24.5t-39 -72.5h227q-1 46 -32 71.5t-78 25.5zM351 209q-90 1 -132.5 -11.5t-42.5 -49.5q0 -24 20 -40.5t50 -16.5q105 0 105 117v1z" />
    <glyph glyph-name="ccedilla" unicode="&#xe7;" horiz-adv-x="520" 
d="M229 -9q-99 15 -152 84t-53 176q0 117 70 188t184 71q71 0 131.5 -31t92.5 -99l-127 -46q-22 58 -88 58q-46 0 -77 -34.5t-31 -107.5q0 -75 31 -109.5t77 -34.5q61 0 89 47l124 -45q-35 -62 -93.5 -90.5t-123.5 -29.5l-22 -35q13 3 34 3q34 0 60 -15t26 -47
q0 -41 -36.5 -60.5t-90.5 -19.5q-47 0 -88 13l16 50q24 -13 61 -13q44 0 44 27q0 26 -37 26q-12 0 -27 -5q-9 -3 -17 2q-8 4 -10 12t2 16z" />
    <glyph glyph-name="egrave" unicode="&#xe8;" horiz-adv-x="566" 
d="M24 251q0 116 77 187.5t189 71.5q121 0 191.5 -84t62.5 -216h-367q4 -50 37 -77t78 -27q68 0 100 37l121 -44q-38 -55 -95.5 -83t-121.5 -28q-122 0 -197 70.5t-75 192.5zM177 300h226q-1 46 -32 71.5t-77 25.5t-78.5 -24.5t-38.5 -72.5zM159 629q-19 19 -19 42t16.5 40
t39.5 17q21 0 38 -15l114 -139h-114z" />
    <glyph glyph-name="eacute" unicode="&#xe9;" horiz-adv-x="566" 
d="M24 251q0 116 77 187.5t189 71.5q121 0 191.5 -84t62.5 -216h-367q4 -50 37 -77t78 -27q68 0 100 37l121 -44q-38 -55 -95.5 -83t-121.5 -28q-122 0 -197 70.5t-75 192.5zM177 300h226q-1 46 -32 71.5t-77 25.5t-78.5 -24.5t-38.5 -72.5zM233 574l111 135q14 18 41 18
q24 0 40 -16t16 -40q0 -26 -19 -42l-75 -55h-114z" />
    <glyph glyph-name="ecircumflex" unicode="&#xea;" horiz-adv-x="566" 
d="M24 251q0 116 77 187.5t189 71.5q121 0 191.5 -84t62.5 -216h-367q4 -50 37 -77t78 -27q68 0 100 37l121 -44q-38 -55 -95.5 -83t-121.5 -28q-122 0 -197 70.5t-75 192.5zM93 574l147 132q22 20 50 20q27 0 50 -20l146 -132h-128l-68 61l-68 -61h-129zM294 397
q-46 0 -78.5 -24.5t-38.5 -72.5h226q-1 46 -32 71.5t-77 25.5z" />
    <glyph glyph-name="edieresis" unicode="&#xeb;" horiz-adv-x="566" 
d="M24 251q0 116 77 187.5t189 71.5q121 0 191.5 -84t62.5 -216h-367q4 -50 37 -77t78 -27q68 0 100 37l121 -44q-38 -55 -95.5 -83t-121.5 -28q-122 0 -197 70.5t-75 192.5zM177 300h226q-1 46 -32 71.5t-77 25.5t-78.5 -24.5t-38.5 -72.5zM114 648q0 29 21 50t50 21
t49.5 -21t20.5 -50t-20.5 -49.5t-49.5 -20.5t-50 20.5t-21 49.5zM379 578q-29 0 -50 20.5t-21 49.5t21 50t50 21q28 0 48.5 -21t20.5 -50t-20 -49.5t-49 -20.5z" />
    <glyph glyph-name="igrave" unicode="&#xec;" horiz-adv-x="301" 
d="M118 381h-94v115h247v-496h-153v381zM47 671q0 23 16.5 40t39.5 17q21 0 38 -15l114 -139h-114l-75 55q-19 19 -19 42z" />
    <glyph glyph-name="iacute" unicode="&#xed;" horiz-adv-x="301" 
d="M118 381h-94v115h247v-496h-153v381zM124 574l111 135q14 18 41 18q24 0 40 -16t16 -40q0 -26 -19 -42l-75 -55h-114z" />
    <glyph glyph-name="icircumflex" unicode="&#xee;" horiz-adv-x="301" 
d="M118 381h-94v115h247v-496h-153v381zM115 574h-129l147 132q22 20 50 20q27 0 50 -20l146 -132h-128l-68 61z" />
    <glyph glyph-name="idieresis" unicode="&#xef;" horiz-adv-x="301" 
d="M118 381h-94v115h247v-496h-153v381zM3 648q0 29 21 50t50 21t49.5 -21t20.5 -50t-20.5 -49.5t-49.5 -20.5t-50 20.5t-21 49.5zM268 578q-29 0 -50 20.5t-21 49.5t21 50t50 21q28 0 48.5 -21t20.5 -50t-20 -49.5t-49 -20.5z" />
    <glyph glyph-name="eth" unicode="&#xf0;" horiz-adv-x="585" 
d="M286 -12q-116 0 -189 63.5t-73 168.5q0 99 68 165.5t161 66.5q87 0 143 -49q-1 91 -62 144l-63 -64l-48 47l53 53q-48 21 -113 21v122q125 0 207 -48l56 56l48 -48l-48 -47q4 -3 11 -10q64 -64 90.5 -139t26.5 -172q0 -148 -66.5 -239t-201.5 -91zM286 338
q-49 0 -77.5 -32.5t-28.5 -85.5q0 -54 28.5 -86.5t77.5 -32.5t78.5 32.5t29.5 86.5t-30 86t-78 32z" />
    <glyph glyph-name="eth" unicode="&#xe97d;" horiz-adv-x="585" 
d="M286 -12q-116 0 -189 63.5t-73 168.5q0 99 68 165.5t161 66.5q87 0 143 -49q-1 91 -62 144l-63 -64l-48 47l53 53q-48 21 -113 21v122q125 0 207 -48l56 56l48 -48l-48 -47q4 -3 11 -10q64 -64 90.5 -139t26.5 -172q0 -148 -66.5 -239t-201.5 -91zM286 338
q-49 0 -77.5 -32.5t-28.5 -85.5q0 -54 28.5 -86.5t77.5 -32.5t78.5 32.5t29.5 86.5t-30 86t-78 32z" />
    <glyph glyph-name="ntilde" unicode="&#xf1;" horiz-adv-x="572" 
d="M50 0v496h133l19 -66q19 32 59.5 56t93.5 24q92 0 129.5 -51t37.5 -157v-302h-152v264q0 26 -1 41t-5 34t-11.5 29t-22.5 17t-36 7q-92 0 -92 -137v-255h-152zM96 574q19 115 125 115q34 0 70 -20.5t54 -20.5q23 0 43 21q18 20 36 20q26 0 37.5 -20.5t-1.5 -42.5
q-15 -27 -45.5 -42t-63.5 -15q-36 0 -68 16q-6 3 -15.5 8t-13.5 7.5t-10.5 4.5t-12.5 2q-40 2 -46 -33h-89z" />
    <glyph glyph-name="ograve" unicode="&#xf2;" 
d="M24 250q0 127 75.5 193.5t187.5 66.5q110 0 186 -66.5t76 -193.5t-76 -194.5t-186 -67.5q-111 0 -187 67.5t-76 194.5zM179 250q0 -74 29 -109t79 -35q49 0 78 35t29 109t-29.5 108t-77.5 34q-49 0 -78.5 -34t-29.5 -108zM135 671q0 23 16.5 40t39.5 17q21 0 38 -15
l114 -139h-114l-75 55q-19 19 -19 42z" />
    <glyph glyph-name="oacute" unicode="&#xf3;" 
d="M24 250q0 127 75.5 193.5t187.5 66.5q110 0 186 -66.5t76 -193.5t-76 -194.5t-186 -67.5q-111 0 -187 67.5t-76 194.5zM179 250q0 -74 29 -109t79 -35q49 0 78 35t29 109t-29.5 108t-77.5 34q-49 0 -78.5 -34t-29.5 -108zM343 574h-114l111 135q14 18 41 18q24 0 40 -16
t16 -40q0 -26 -19 -42z" />
    <glyph glyph-name="ocircumflex" unicode="&#xf4;" 
d="M24 250q0 127 75.5 193.5t187.5 66.5q110 0 186 -66.5t76 -193.5t-76 -194.5t-186 -67.5q-111 0 -187 67.5t-76 194.5zM287 392q-49 0 -78.5 -34t-29.5 -108t29 -109t79 -35q49 0 78 35t29 109t-29.5 108t-77.5 34zM219 574h-129l147 132q22 20 50 20q27 0 50 -20
l146 -132h-128l-68 61z" />
    <glyph glyph-name="otilde" unicode="&#xf5;" 
d="M24 250q0 127 75.5 193.5t187.5 66.5q110 0 186 -66.5t76 -193.5t-76 -194.5t-186 -67.5q-111 0 -187 67.5t-76 194.5zM179 250q0 -74 29 -109t79 -35q49 0 78 35t29 109t-29.5 108t-77.5 34q-49 0 -78.5 -34t-29.5 -108zM96 574q19 115 125 115q34 0 70 -20.5t54 -20.5
q23 0 43 21q18 20 36 20q26 0 37.5 -20.5t-1.5 -42.5q-15 -27 -45.5 -42t-63.5 -15q-36 0 -68 16q-6 3 -15.5 8t-13.5 7.5t-10.5 4.5t-12.5 2q-40 2 -46 -33h-89z" />
    <glyph glyph-name="odieresis" unicode="&#xf6;" 
d="M24 250q0 127 75.5 193.5t187.5 66.5q110 0 186 -66.5t76 -193.5t-76 -194.5t-186 -67.5q-111 0 -187 67.5t-76 194.5zM179 250q0 -74 29 -109t79 -35q49 0 78 35t29 109t-29.5 108t-77.5 34q-49 0 -78.5 -34t-29.5 -108zM190 578q-29 0 -50 20.5t-21 49.5t21 50t50 21
t49.5 -21t20.5 -50t-20.5 -49.5t-49.5 -20.5zM384 578q-29 0 -50 20.5t-21 49.5t21 50t50 21q28 0 48.5 -21t20.5 -50t-20 -49.5t-49 -20.5z" />
    <glyph glyph-name="divide" unicode="&#xf7;" horiz-adv-x="594" 
d="M41 186v128h512v-128h-512zM297 351q-32 0 -55.5 23.5t-23.5 56.5t23.5 56t55.5 23t55.5 -23t23.5 -56t-23.5 -56.5t-55.5 -23.5zM297 -12q-32 0 -55.5 23.5t-23.5 56.5q0 32 23.5 55.5t55.5 23.5t55.5 -23.5t23.5 -55.5q0 -33 -23.5 -56.5t-55.5 -23.5z" />
    <glyph glyph-name="divide" unicode="&#xe984;" horiz-adv-x="594" 
d="M41 186v128h512v-128h-512zM297 351q-32 0 -55.5 23.5t-23.5 56.5t23.5 56t55.5 23t55.5 -23t23.5 -56t-23.5 -56.5t-55.5 -23.5zM297 -12q-32 0 -55.5 23.5t-23.5 56.5q0 32 23.5 55.5t55.5 23.5t55.5 -23.5t23.5 -55.5q0 -33 -23.5 -56.5t-55.5 -23.5z" />
    <glyph glyph-name="oslash" unicode="&#xf8;" 
d="M82 75q-58 68 -58 175q0 127 75.5 193.5t187.5 66.5q79 0 140 -34l42 48l56 -48l-39 -45q63 -69 63 -181q0 -128 -76 -195t-186 -67q-85 0 -149 39l-46 -53l-56 48zM223 126q26 -20 64 -20q49 0 78 35t29 109q0 36 -8 66zM287 392q-49 0 -78.5 -34t-29.5 -108
q0 -32 6 -56l157 183q-24 15 -55 15z" />
    <glyph glyph-name="oslash" unicode="&#xe985;" 
d="M82 75q-58 68 -58 175q0 127 75.5 193.5t187.5 66.5q79 0 140 -34l42 48l56 -48l-39 -45q63 -69 63 -181q0 -128 -76 -195t-186 -67q-85 0 -149 39l-46 -53l-56 48zM223 126q26 -20 64 -20q49 0 78 35t29 109q0 36 -8 66zM287 392q-49 0 -78.5 -34t-29.5 -108
q0 -32 6 -56l157 183q-24 15 -55 15z" />
    <glyph glyph-name="ugrave" unicode="&#xf9;" horiz-adv-x="570" 
d="M50 198v298h152v-260q0 -26 0.5 -41t4.5 -34.5t12 -29.5t22.5 -17.5t36.5 -7.5q48 0 68 30t20 99v261h153v-496h-132l-21 70q-24 -40 -57 -61t-87 -21q-95 0 -133.5 51.5t-38.5 158.5zM154 629q-19 19 -19 43q0 23 16.5 39.5t39.5 16.5q21 0 38 -15l5 -5l109 -134h-114z
" />
    <glyph glyph-name="uacute" unicode="&#xfa;" horiz-adv-x="570" 
d="M222 -12q-95 0 -133.5 51.5t-38.5 158.5v298h152v-260q0 -26 0.5 -41t4.5 -34.5t12 -29.5t22.5 -17.5t36.5 -7.5q48 0 68 30t20 99v261h153v-496h-132l-21 70q-24 -40 -57 -61t-87 -21zM343 574h-114l111 135q14 18 41 18q24 0 40 -16t16 -40q0 -26 -19 -42z" />
    <glyph glyph-name="ucircumflex" unicode="&#xfb;" horiz-adv-x="570" 
d="M222 -12q-95 0 -133.5 51.5t-38.5 158.5v298h152v-260q0 -26 0.5 -41t4.5 -34.5t12 -29.5t22.5 -17.5t36.5 -7.5q48 0 68 30t20 99v261h153v-496h-132l-21 70q-24 -40 -57 -61t-87 -21zM88 574l147 132q22 20 50 20q27 0 50 -20l146 -132h-128l-68 61l-68 -61h-129z" />
    <glyph glyph-name="udieresis" unicode="&#xfc;" horiz-adv-x="570" 
d="M222 -12q-95 0 -133.5 51.5t-38.5 158.5v298h152v-260q0 -26 0.5 -41t4.5 -34.5t12 -29.5t22.5 -17.5t36.5 -7.5q48 0 68 30t20 99v261h153v-496h-132l-21 70q-24 -40 -57 -61t-87 -21zM187 578q-29 0 -50 20.5t-21 49.5t21 50t50 21t49.5 -21t20.5 -50t-20.5 -49.5
t-49.5 -20.5zM310 648q0 29 21 50t50 21q28 0 48.5 -21t20.5 -50t-20 -49.5t-49 -20.5t-50 20.5t-21 49.5z" />
    <glyph glyph-name="yacute" unicode="&#xfd;" horiz-adv-x="518" 
d="M0 496h163l97 -310l95 310h163l-190 -496q-37 -97 -78 -129t-136 -32h-49v110h30q49 0 64 6.5t26 34.5l5 13zM315 574h-114l111 135q14 18 41 18q24 0 40 -16t16 -40q0 -26 -19 -42z" />
    <glyph glyph-name="thorn" unicode="&#xfe;" horiz-adv-x="596" 
d="M50 -161v829h152v-240q23 39 66 60.5t85 21.5q97 0 158 -72t61 -191q0 -120 -60.5 -189.5t-158.5 -69.5q-42 0 -85 21.5t-66 60.5v-231h-152zM305 392q-49 0 -79.5 -34.5t-30.5 -106.5q0 -73 30.5 -109t79.5 -36q46 0 77.5 37.5t31.5 103.5t-31.5 105.5t-77.5 39.5z" />
    <glyph glyph-name="thorn" unicode="&#xe98b;" horiz-adv-x="596" 
d="M50 -161v829h152v-240q23 39 66 60.5t85 21.5q97 0 158 -72t61 -191q0 -120 -60.5 -189.5t-158.5 -69.5q-42 0 -85 21.5t-66 60.5v-231h-152zM305 392q-49 0 -79.5 -34.5t-30.5 -106.5q0 -73 30.5 -109t79.5 -36q46 0 77.5 37.5t31.5 103.5t-31.5 105.5t-77.5 39.5z" />
    <glyph glyph-name="ydieresis" unicode="&#xff;" horiz-adv-x="518" 
d="M0 496h163l97 -310l95 310h163l-190 -496q-37 -97 -78 -129t-136 -32h-49v110h30q49 0 64 6.5t26 34.5l5 13zM163 578q-29 0 -50 20.5t-21 49.5t21 50t50 21t49.5 -21t20.5 -50t-20.5 -49.5t-49.5 -20.5zM357 578q-29 0 -50 20.5t-21 49.5t21 50t50 21q28 0 48.5 -21
t20.5 -50t-20 -49.5t-49 -20.5z" />
    <glyph glyph-name="Amacron" unicode="&#x100;" horiz-adv-x="690" 
d="M5 0l253 668h174l253 -668h-172l-40 119h-256l-40 -119h-172zM196 746v98h299v-98h-299zM344 501l-84 -254h170z" />
    <glyph glyph-name="amacron" unicode="&#x101;" horiz-adv-x="548" 
d="M190 -12q-73 0 -122 40t-49 106q0 85 85 124.5t244 51.5v19q0 78 -83 78q-71 0 -86 -59l-128 46q26 52 85.5 84t141.5 32q109 0 164.5 -49t55.5 -158v-109q0 -121 17 -194h-141l-18 60q-51 -72 -166 -72zM437 570h-299v98h299v-98zM176 145q0 -24 20 -38.5t50 -14.5
q50 0 77.5 26t27.5 90v12q-89 -8 -132 -23.5t-43 -51.5z" />
    <glyph glyph-name="Abreve" unicode="&#x102;" horiz-adv-x="690" 
d="M5 0l253 668h174l253 -668h-172l-40 119h-256l-40 -119h-172zM345 731q-53 0 -93.5 34.5t-49.5 85.5h85q4 -17 20.5 -30t37.5 -13t38 13t21 30h85q-9 -51 -49.5 -85.5t-94.5 -34.5zM344 501l-84 -254h170z" />
    <glyph glyph-name="abreve" unicode="&#x103;" horiz-adv-x="548" 
d="M190 -12q-73 0 -122 40t-49 106q0 85 85 124.5t244 51.5v19q0 78 -83 78q-71 0 -86 -59l-128 46q26 52 85.5 84t141.5 32q109 0 164.5 -49t55.5 -158v-109q0 -121 17 -194h-141l-18 60q-51 -72 -166 -72zM144 689h85q4 -17 20.5 -30t37.5 -13t38 13t21 30h85
q-9 -51 -49.5 -85.5t-94.5 -34.5q-53 0 -93.5 34.5t-49.5 85.5zM176 145q0 -24 20 -38.5t50 -14.5q50 0 77.5 26t27.5 90v12q-89 -8 -132 -23.5t-43 -51.5z" />
    <glyph glyph-name="Aogonek" unicode="&#x104;" horiz-adv-x="690" 
d="M5 0l253 668h174l253 -668h-30q-33 -4 -64 -24t-31 -44q0 -30 46 -30q13 0 49 9v-75q-30 -10 -79 -10q-73 0 -107.5 27.5t-34.5 61.5q0 60 80 85h-1l-40 119h-256l-40 -119h-172zM260 247h170l-86 254z" />
    <glyph glyph-name="aogonek" unicode="&#x105;" horiz-adv-x="548" 
d="M19 134q0 85 85 124.5t244 51.5v19q0 78 -83 78q-71 0 -86 -59l-128 46q26 52 85.5 84t141.5 32q109 0 164.5 -49t55.5 -158v-109q0 -121 17 -194q-5 -3 -15 -7.5t-15.5 -7.5t-14.5 -7.5t-14 -7.5t-11.5 -7t-10 -7.5l-7.5 -7.5t-5.5 -8t-1.5 -8q0 -30 46 -30q13 0 49 9
v-75q-30 -10 -79 -10q-73 0 -107.5 27.5t-34.5 61.5q0 60 80 85l-18 60q-51 -72 -166 -72q-73 0 -122 40t-49 106zM351 220q-89 -8 -132 -23.5t-43 -51.5q0 -24 20 -38.5t50 -14.5q50 0 77.5 26t27.5 90v12z" />
    <glyph glyph-name="Cacute" unicode="&#x106;" horiz-adv-x="681" 
d="M35 334q0 158 91.5 252t246.5 94q93 0 164 -41.5t110 -113.5l-140 -51q-42 76 -139 76q-72 0 -119 -58.5t-47 -157.5q0 -102 47 -159t121 -57q102 0 142 75l139 -51q-41 -72 -115 -113t-167 -41q-156 0 -245 93t-89 253zM430 731h-125q119 133 119 134l5 5q17 15 38 15
q23 0 39.5 -16.5t16.5 -39.5q0 -24 -19 -43z" />
    <glyph glyph-name="cacute" unicode="&#x107;" horiz-adv-x="520" 
d="M278 -12q-121 0 -187.5 71.5t-66.5 191.5q0 117 70 188t184 71q71 0 131.5 -31t92.5 -99l-127 -46q-22 58 -88 58q-46 0 -77 -34.5t-31 -107.5q0 -75 31 -109.5t77 -34.5q61 0 89 47l124 -45q-36 -63 -95.5 -91.5t-126.5 -28.5zM332 574h-114l111 135q14 18 41 18
q24 0 40 -16t16 -40q0 -26 -19 -42z" />
    <glyph glyph-name="Cdotaccent" unicode="&#x10a;" horiz-adv-x="681" 
d="M369 -12q-156 0 -245 93t-89 253q0 158 91.5 252t246.5 94q93 0 164 -41.5t110 -113.5l-140 -51q-42 76 -139 76q-72 0 -119 -58.5t-47 -157.5q0 -102 47 -159t121 -57q102 0 142 75l139 -51q-41 -72 -115 -113t-167 -41zM298 796q0 29 21 50t50 21t49.5 -21t20.5 -50
t-20.5 -49.5t-49.5 -20.5t-50 20.5t-21 49.5z" />
    <glyph glyph-name="cdotaccent" unicode="&#x10b;" horiz-adv-x="520" 
d="M278 -12q-121 0 -187.5 71.5t-66.5 191.5q0 117 70 188t184 71q71 0 131.5 -31t92.5 -99l-127 -46q-22 58 -88 58q-46 0 -77 -34.5t-31 -107.5q0 -75 31 -109.5t77 -34.5q61 0 89 47l124 -45q-36 -63 -95.5 -91.5t-126.5 -28.5zM210 654q0 29 21 50t50 21t49.5 -21
t20.5 -50t-20.5 -49.5t-49.5 -20.5t-50 20.5t-21 49.5z" />
    <glyph glyph-name="Ccaron" unicode="&#x10c;" horiz-adv-x="681" 
d="M35 334q0 158 91.5 252t246.5 94q93 0 164 -41.5t110 -113.5l-140 -51q-42 76 -139 76q-72 0 -119 -58.5t-47 -157.5q0 -102 47 -159t121 -57q102 0 142 75l139 -51q-41 -72 -115 -113t-167 -41q-156 0 -245 93t-89 253zM173 877h129l68 -61l68 61h128l-146 -133
q-22 -19 -50 -19q-29 0 -50 19z" />
    <glyph glyph-name="ccaron" unicode="&#x10d;" horiz-adv-x="520" 
d="M24 251q0 117 70 188t184 71q71 0 131.5 -31t92.5 -99l-127 -46q-22 58 -88 58q-46 0 -77 -34.5t-31 -107.5q0 -75 31 -109.5t77 -34.5q61 0 89 47l124 -45q-36 -63 -95.5 -91.5t-126.5 -28.5q-121 0 -187.5 71.5t-66.5 191.5zM235 587l-147 133h129l68 -61l68 61h128
l-146 -133q-22 -19 -50 -19q-29 0 -50 19z" />
    <glyph glyph-name="Dcaron" unicode="&#x10e;" horiz-adv-x="682" 
d="M44 0v668h220q387 0 387 -334t-387 -334h-220zM267 537h-65v-404h65q49 0 84 7t68.5 27t51 62t17.5 105t-17.5 105.5t-51 62.5t-68.5 27.5t-84 7.5zM134 877h129l68 -61l68 61h128l-146 -133q-22 -19 -50 -19q-29 0 -50 19z" />
    <glyph glyph-name="dcaron" unicode="&#x10f;" horiz-adv-x="657" 
d="M243 -12q-97 0 -158 72t-61 192t60.5 189t158.5 69q43 0 85.5 -21.5t65.5 -60.5v240h152v-474q0 -105 17 -194h-145l-20 67q-58 -79 -155 -79zM292 392q-47 0 -78.5 -37t-31.5 -103q0 -67 31.5 -106.5t78.5 -39.5q48 0 78.5 35t30.5 108q0 72 -30.5 107.5t-78.5 35.5z
M576 496l24 145q4 22 20.5 34.5t35.5 12.5q24 0 39.5 -17.5t15.5 -39.5q0 -9 -3 -17l-52 -118h-80z" />
    <glyph glyph-name="Dcroat" unicode="&#x110;" horiz-adv-x="781" 
d="M25 412h118v256h220q387 0 387 -334t-387 -334h-220v275h-118v137zM301 412h77v-137h-77v-142h65q49 0 84 7t68.5 27t51 62t17.5 105t-17.5 105.5t-51 62.5t-68.5 27.5t-84 7.5h-65v-125z" />
    <glyph glyph-name="dcroat" unicode="&#x111;" horiz-adv-x="593" 
d="M243 -12q-97 0 -158 72t-61 192t60.5 189t158.5 69q43 0 85.5 -21.5t65.5 -60.5v127h-151v78h151v65h152v-65h66v-78h-66v-361q0 -105 17 -194h-145l-20 67q-58 -79 -155 -79zM182 252q0 -67 31.5 -106.5t78.5 -39.5q48 0 78.5 35t30.5 108q0 72 -30.5 107.5t-78.5 35.5
q-47 0 -78.5 -37t-31.5 -103z" />
    <glyph glyph-name="Emacron" unicode="&#x112;" horiz-adv-x="580" 
d="M44 0v668h514v-139h-356v-116h217v-139h-217v-135h356v-139h-514zM152 845h299v-98h-299v98z" />
    <glyph glyph-name="emacron" unicode="&#x113;" horiz-adv-x="566" 
d="M24 251q0 116 77 187.5t189 71.5q121 0 191.5 -84t62.5 -216h-367q4 -50 37 -77t78 -27q68 0 100 37l121 -44q-38 -55 -95.5 -83t-121.5 -28q-122 0 -197 70.5t-75 192.5zM140 570v98h299v-98h-299zM177 300h226q-1 46 -32 71.5t-77 25.5t-78.5 -24.5t-38.5 -72.5z" />
    <glyph glyph-name="Edotaccent" unicode="&#x116;" horiz-adv-x="580" 
d="M44 668h514v-139h-356v-116h217v-139h-217v-135h356v-139h-514v668zM231 796q0 29 21 50t50 21t49.5 -21t20.5 -50t-20.5 -49.5t-49.5 -20.5t-50 20.5t-21 49.5z" />
    <glyph glyph-name="edotaccent" unicode="&#x117;" horiz-adv-x="566" 
d="M24 251q0 116 77 187.5t189 71.5q121 0 191.5 -84t62.5 -216h-367q4 -50 37 -77t78 -27q68 0 100 37l121 -44q-38 -55 -95.5 -83t-121.5 -28q-122 0 -197 70.5t-75 192.5zM294 397q-46 0 -78.5 -24.5t-38.5 -72.5h226q-1 46 -32 71.5t-77 25.5zM219 654q0 29 21 50t50 21
t49.5 -21t20.5 -50t-20.5 -49.5t-49.5 -20.5t-50 20.5t-21 49.5z" />
    <glyph glyph-name="Eogonek" unicode="&#x118;" horiz-adv-x="580" 
d="M44 0v668h514v-139h-356v-116h217v-139h-217v-135h356v-139h-37q-33 -4 -64 -24t-31 -44q0 -30 46 -30q13 0 49 9v-75q-30 -10 -79 -10q-73 0 -107.5 27.5t-34.5 61.5q0 60 80 85h-336z" />
    <glyph glyph-name="eogonek" unicode="&#x119;" horiz-adv-x="566" 
d="M24 251q0 116 77 187.5t189 71.5q121 0 191.5 -84t62.5 -216h-367q4 -50 37 -77t78 -27q68 0 100 37l121 -44q-42 -62 -113 -91q-88 -43 -88 -76q0 -30 46 -30q13 0 49 9v-75q-30 -10 -79 -10q-73 0 -107.5 27.5t-34.5 61.5q0 49 58 77q-101 14 -160.5 82.5t-59.5 176.5z
M177 300h226q-1 46 -32 71.5t-77 25.5t-78.5 -24.5t-38.5 -72.5z" />
    <glyph glyph-name="Ecaron" unicode="&#x11a;" horiz-adv-x="580" 
d="M44 0v668h514v-139h-356v-116h217v-139h-217v-135h356v-139h-514zM252 744l-147 133h129l68 -61l68 61h128l-146 -133q-22 -19 -50 -19q-29 0 -50 19z" />
    <glyph glyph-name="ecaron" unicode="&#x11b;" horiz-adv-x="566" 
d="M24 251q0 116 77 187.5t189 71.5q121 0 191.5 -84t62.5 -216h-367q4 -50 37 -77t78 -27q68 0 100 37l121 -44q-38 -55 -95.5 -83t-121.5 -28q-122 0 -197 70.5t-75 192.5zM93 720h129l68 -61l68 61h128l-146 -133q-22 -19 -50 -19q-29 0 -50 19zM177 300h226
q-1 46 -32 71.5t-77 25.5t-78.5 -24.5t-38.5 -72.5z" />
    <glyph glyph-name="Gbreve" unicode="&#x11e;" horiz-adv-x="719" 
d="M35 336q0 157 93.5 250.5t246.5 93.5q89 0 159.5 -35.5t109.5 -102.5l-136 -56q-40 64 -135 64q-75 0 -123 -56t-48 -158q0 -103 47.5 -160.5t126.5 -57.5q63 0 106 27t43 86v19h-150v128h308v-378h-104l-22 74q-64 -86 -205 -86q-147 0 -232 94t-85 254zM375 731
q-53 0 -93.5 34.5t-49.5 85.5h85q4 -17 20.5 -30t37.5 -13t38 13t21 30h85q-9 -51 -49.5 -85.5t-94.5 -34.5z" />
    <glyph glyph-name="gbreve" unicode="&#x11f;" horiz-adv-x="597" 
d="M24 259q0 122 62 187t147 65q48 0 91 -21.5t71 -61.5l20 68h131v-459q0 -122 -66.5 -181t-186.5 -59q-160 0 -220 118l124 45q23 -47 92 -47q106 0 106 94v89q-63 -78 -157 -78q-86 0 -150 66.5t-64 174.5zM182 267q0 -63 31 -97t79 -34q109 0 109 127q0 68 -30 98.5
t-79 30.5q-48 0 -79 -31.5t-31 -93.5zM297 569q-53 0 -93.5 34.5t-49.5 85.5h85q4 -17 20.5 -30t37.5 -13t38 13t21 30h85q-9 -51 -49.5 -85.5t-94.5 -34.5z" />
    <glyph glyph-name="Gdotaccent" unicode="&#x120;" horiz-adv-x="719" 
d="M35 336q0 157 93.5 250.5t246.5 93.5q89 0 159.5 -35.5t109.5 -102.5l-136 -56q-40 64 -135 64q-75 0 -123 -56t-48 -158q0 -103 47.5 -160.5t126.5 -57.5q63 0 106 27t43 86v19h-150v128h308v-378h-104l-22 74q-64 -86 -205 -86q-147 0 -232 94t-85 254zM376 726
q-29 0 -50 20.5t-21 49.5t21 50t50 21t49.5 -21t20.5 -50t-20.5 -49.5t-49.5 -20.5z" />
    <glyph glyph-name="gdotaccent" unicode="&#x121;" horiz-adv-x="597" 
d="M24 259q0 122 62 187t147 65q48 0 91 -21.5t71 -61.5l20 68h131v-459q0 -122 -66.5 -181t-186.5 -59q-160 0 -220 118l124 45q23 -47 92 -47q106 0 106 94v89q-63 -78 -157 -78q-86 0 -150 66.5t-64 174.5zM292 392q-48 0 -79 -31.5t-31 -93.5q0 -63 31 -97t79 -34
q109 0 109 127q0 68 -30 98.5t-79 30.5zM232 648q0 29 21 50t50 21t49.5 -21t20.5 -50t-20.5 -49.5t-49.5 -20.5t-50 20.5t-21 49.5z" />
    <glyph glyph-name="uni0122" unicode="&#x122;" horiz-adv-x="719" 
d="M375 250v128h308v-378h-104l-22 74q-64 -86 -205 -86q-147 0 -232 94t-85 254q0 157 93.5 250.5t246.5 93.5q89 0 159.5 -35.5t109.5 -102.5l-136 -56q-40 64 -135 64q-75 0 -123 -56t-48 -158q0 -103 47.5 -160.5t126.5 -57.5q63 0 106 27t43 86v19h-150zM300 -251
l-52 45q48 0 75 16t27 45q0 20 -19.5 36.5t-48.5 23.5l102 40q84 -34 84 -96q0 -48 -44.5 -79t-123.5 -31z" />
    <glyph glyph-name="uni0123" unicode="&#x123;" horiz-adv-x="597" 
d="M415 496h131v-459q0 -162 -119 -215q-31 -14 -76 -20t-98 -2.5t-103 33t-77 82.5l124 45q13 -26 42 -37.5t56 -10t47 9.5q53 18 53 85v89q-46 -56 -111 -71t-122 7.5t-97.5 83t-40.5 143.5q0 67 20.5 118.5t53.5 80.5t74 43t82 9t79 -26t62 -56zM292 136q109 0 109 127
q0 68 -30 98.5t-79 30.5q-48 0 -79 -31.5t-31 -93.5q0 -63 31 -97t79 -34zM358 774l52 -45q-48 0 -75 -15.5t-27 -45.5q0 -20 19.5 -36.5t48.5 -22.5l-102 -41q-84 34 -84 96q0 48 44.5 79t123.5 31z" />
    <glyph glyph-name="Hbar" unicode="&#x126;" horiz-adv-x="740" 
d="M15 496v98h60v74h158v-74h275v74h158v-74h59v-98h-60l1 -496h-158v274h-275v-274h-158v496h-60zM508 496h-275v-83h275v83z" />
    <glyph glyph-name="hbar" unicode="&#x127;" horiz-adv-x="590" 
d="M-26 555v78h94v65h152v-65h123v-78h-123v-125q19 32 59.5 56t93.5 24q92 0 129.5 -51t37.5 -157v-302h-152v264q0 26 -1 41t-5 34t-11.5 29t-22.5 17t-36 7q-92 0 -92 -137v-255h-152v555h-94z" />
    <glyph glyph-name="Imacron" unicode="&#x12a;" horiz-adv-x="458" 
d="M57 124h94v420h-94v124h344v-124h-92v-420h92v-124h-344v124zM80 747v98h299v-98h-299z" />
    <glyph glyph-name="imacron" unicode="&#x12b;" horiz-adv-x="301" 
d="M24 496h247v-496h-153v381h-94v115zM325 570h-299v98h299v-98z" />
    <glyph glyph-name="Iogonek" unicode="&#x12e;" horiz-adv-x="458" 
d="M166 0h-109v124h94v420h-94v124h344v-124h-92v-420h92v-124h-94q-33 -4 -64 -24t-31 -44q0 -30 46 -30q13 0 49 9v-75q-30 -10 -79 -10q-73 0 -107.5 27.5t-34.5 61.5q0 60 80 85z" />
    <glyph glyph-name="iogonek" unicode="&#x12f;" horiz-adv-x="315" 
d="M24 380v116h247v-496h-10q-5 -3 -15 -7.5t-15.5 -7.5t-14.5 -7.5t-14 -7.5t-11.5 -7t-10 -7.5l-7.5 -7.5t-5.5 -8t-1.5 -8q0 -30 46 -30q13 0 49 9v-75q-30 -10 -79 -10q-73 0 -107.5 27.5t-34.5 61.5q0 60 80 85h-2v380h-94zM195 578q-37 0 -63.5 26.5t-26.5 63.5
q0 38 26.5 64t63.5 26t63.5 -26t26.5 -64q0 -37 -26.5 -63.5t-63.5 -26.5z" />
    <glyph glyph-name="dotlessi" unicode="&#x131;" horiz-adv-x="301" 
d="M24 496h247v-496h-153v381h-94v115z" />
    <glyph glyph-name="dotlessi" unicode="&#xe98d;" horiz-adv-x="301" 
d="M24 496h247v-496h-153v381h-94v115z" />
    <glyph glyph-name="uni0136" unicode="&#x136;" horiz-adv-x="659" 
d="M372 382l277 -382h-183l-196 272l-68 -75v-197h-158v668h158v-265l241 265h193zM230 -251l-52 45q48 0 75 16t27 45q0 20 -19.5 36.5t-48.5 23.5l102 40q84 -34 84 -96q0 -48 -44.5 -79t-123.5 -31z" />
    <glyph glyph-name="uni0137" unicode="&#x137;" horiz-adv-x="567" 
d="M354 289l209 -289h-180l-129 180l-52 -55v-125h-152v668h152v-360l166 188h180zM204 -251l-52 45q48 0 75 16t27 45q0 20 -19.5 36.5t-48.5 23.5l102 40q84 -34 84 -96q0 -48 -44.5 -79t-123.5 -31z" />
    <glyph glyph-name="uni013B" unicode="&#x13b;" horiz-adv-x="537" 
d="M202 139h320v-139h-478v668h158v-529zM242 -252l-52 45q48 0 75 16t27 45q0 20 -19.5 36.5t-48.5 23.5l102 40q84 -34 84 -96q0 -48 -44.5 -79t-123.5 -31z" />
    <glyph glyph-name="uni013C" unicode="&#x13c;" horiz-adv-x="314" 
d="M268 124h43v-124h-97q-95 0 -129.5 27.5t-34.5 112.5v528h152v-488q0 -34 13.5 -45t52.5 -11zM74 -251l-52 45q48 0 75 16t27 45q0 20 -19.5 36.5t-48.5 23.5l102 40q84 -34 84 -96q0 -48 -44.5 -79t-123.5 -31z" />
    <glyph glyph-name="Lcaron" unicode="&#x13d;" horiz-adv-x="537" 
d="M44 668h158v-529h320v-139h-478v668zM234 503l24 145q4 22 20.5 34.5t35.5 12.5q24 0 39.5 -17.5t15.5 -39.5q0 -10 -3 -17l-52 -118h-80z" />
    <glyph glyph-name="lcaron" unicode="&#x13e;" horiz-adv-x="314" 
d="M214 0q-95 0 -129.5 27.5t-34.5 112.5v528h152v-488q0 -34 13.5 -45t52.5 -11h43v-124h-97zM233 497l24 145q4 22 20.5 34.5t35.5 12.5q24 0 39.5 -17.5t15.5 -39.5q0 -10 -3 -17l-52 -118h-80z" />
    <glyph glyph-name="Lslash" unicode="&#x141;" horiz-adv-x="586" 
d="M13 300l80 47v321h158v-227l160 97v-122l-160 -95v-182h320v-139h-478v226l-80 -48v122z" />
    <glyph glyph-name="Lslash" unicode="&#xe98e;" horiz-adv-x="586" 
d="M13 300l80 47v321h158v-227l160 97v-122l-160 -95v-182h320v-139h-478v226l-80 -48v122z" />
    <glyph glyph-name="lslash" unicode="&#x142;" horiz-adv-x="322" 
d="M5 195v122l54 32v319h153v-228l107 65v-122l-107 -64v-140q0 -34 13 -44.5t52 -10.5h42v-124h-95q-95 0 -130 27.5t-35 111.5v89z" />
    <glyph glyph-name="lslash" unicode="&#xe98f;" horiz-adv-x="322" 
d="M5 195v122l54 32v319h153v-228l107 65v-122l-107 -64v-140q0 -34 13 -44.5t52 -10.5h42v-124h-95q-95 0 -130 27.5t-35 111.5v89z" />
    <glyph glyph-name="Nacute" unicode="&#x143;" horiz-adv-x="700" 
d="M44 0v668h201l258 -476v476h153v-668h-202l-258 476v-476h-152zM437 731h-125q119 133 119 134l5 5q17 15 38 15q23 0 39.5 -16.5t16.5 -39.5q0 -24 -19 -43z" />
    <glyph glyph-name="nacute" unicode="&#x144;" horiz-adv-x="572" 
d="M50 496h133l19 -66q19 32 59.5 56t93.5 24q92 0 129.5 -51t37.5 -157v-302h-152v264q0 26 -1 41t-5 34t-11.5 29t-22.5 17t-36 7q-92 0 -92 -137v-255h-152v496zM346 574h-114l111 135q14 18 41 18q24 0 40 -16t16 -40q0 -26 -19 -42z" />
    <glyph glyph-name="uni0145" unicode="&#x145;" horiz-adv-x="700" 
d="M454 0l-258 476v-476h-152v668h201l258 -476v476h153v-668h-202zM263 -251l-52 45q48 0 75 16t27 45q0 20 -19.5 36.5t-48.5 23.5l102 40q84 -34 84 -96q0 -48 -44.5 -79t-123.5 -31z" />
    <glyph glyph-name="uni0146" unicode="&#x146;" horiz-adv-x="572" 
d="M355 510q92 0 129.5 -51t37.5 -157v-302h-152v264q0 26 -1 41t-5 34t-11.5 29t-22.5 17t-36 7q-92 0 -92 -137v-255h-152v496h133l19 -66q19 32 59.5 56t93.5 24zM206 -251l-52 45q48 0 75 16t27 45q0 20 -19.5 36.5t-48.5 23.5l102 40q84 -34 84 -96q0 -48 -44.5 -79
t-123.5 -31z" />
    <glyph glyph-name="Ncaron" unicode="&#x147;" horiz-adv-x="700" 
d="M196 0h-152v668h201l258 -476v476h153v-668h-202l-258 476v-476zM301 744l-147 133h129l68 -61l68 61h128l-146 -133q-22 -19 -50 -19q-29 0 -50 19z" />
    <glyph glyph-name="ncaron" unicode="&#x148;" horiz-adv-x="572" 
d="M50 496h133l19 -66q19 32 59.5 56t93.5 24q92 0 129.5 -51t37.5 -157v-302h-152v264q0 26 -1 41t-5 34t-11.5 29t-22.5 17t-36 7q-92 0 -92 -137v-255h-152v496zM237 587l-147 133h129l68 -61l68 61h128l-146 -133q-22 -19 -50 -19q-29 0 -50 19z" />
    <glyph glyph-name="Ohungarumlaut" unicode="&#x150;" horiz-adv-x="764" 
d="M381 -12q-154 0 -250 95.5t-96 250.5t96 250.5t250 95.5q155 0 251.5 -95.5t96.5 -250.5t-96.5 -250.5t-251.5 -95.5zM381 550q-77 0 -128 -57t-51 -159t51 -159t128 -57t128.5 57t51.5 159t-51.5 159t-128.5 57zM323 745h-114l109 133l4 4q3 3 7.5 6.5t13 6.5t18.5 3
q24 0 40 -16t16 -40q0 -26 -19 -42zM525 745h-114l109 133l4 4q3 3 7.5 6.5t13 6.5t18.5 3q24 0 40 -16t16 -40q0 -26 -19 -42z" />
    <glyph glyph-name="ohungarumlaut" unicode="&#x151;" 
d="M24 250q0 127 75.5 193.5t187.5 66.5q110 0 186 -66.5t76 -193.5t-76 -194.5t-186 -67.5q-111 0 -187 67.5t-76 194.5zM287 392q-49 0 -78.5 -34t-29.5 -108t29 -109t79 -35q49 0 78 35t29 109t-29.5 108t-77.5 34zM235 574h-114l109 133l4 3q3 4 7.5 7.5t13 6.5t18.5 3
q24 0 40 -16t16 -40q0 -26 -19 -42zM437 574h-114l109 133l4 3q3 4 7.5 7.5t13 6.5t18.5 3q24 0 40 -16t16 -40q0 -26 -19 -42z" />
    <glyph glyph-name="OE" unicode="&#x152;" horiz-adv-x="1061" 
d="M381 -12q-154 0 -250 95t-96 251q0 155 96 250.5t250 95.5q102 0 180 -43v31h478v-140h-356v-115h218v-138h-218v-136h356v-139h-478v31q-78 -43 -180 -43zM381 549q-77 0 -128 -56.5t-51 -158.5t51 -159t128 -57t128.5 57t51.5 159t-51.5 158.5t-128.5 56.5z" />
    <glyph glyph-name="OE" unicode="&#xe990;" horiz-adv-x="1061" 
d="M381 -12q-154 0 -250 95t-96 251q0 155 96 250.5t250 95.5q102 0 180 -43v31h478v-140h-356v-115h218v-138h-218v-136h356v-139h-478v31q-78 -43 -180 -43zM381 549q-77 0 -128 -56.5t-51 -158.5t51 -159t128 -57t128.5 57t51.5 159t-51.5 158.5t-128.5 56.5z" />
    <glyph glyph-name="oe" unicode="&#x153;" horiz-adv-x="937" 
d="M24 250q0 127 75.5 193.5t187.5 66.5q116 0 188 -69q75 69 185 69q122 0 192.5 -84.5t62.5 -216.5h-368q4 -50 36.5 -76.5t77.5 -26.5q70 0 102 37l121 -44q-37 -55 -95 -83t-123 -28q-121 0 -193 67q-71 -67 -186 -67q-112 0 -187.5 67t-75.5 195zM287 392
q-49 0 -78.5 -34t-29.5 -108t29 -109t79 -35q49 0 78 35t29 109t-29.5 108t-77.5 34zM664 396q-46 0 -78.5 -24.5t-38.5 -72.5h226q-1 46 -31.5 71.5t-77.5 25.5z" />
    <glyph glyph-name="oe" unicode="&#xe991;" horiz-adv-x="937" 
d="M24 250q0 127 75.5 193.5t187.5 66.5q116 0 188 -69q75 69 185 69q122 0 192.5 -84.5t62.5 -216.5h-368q4 -50 36.5 -76.5t77.5 -26.5q70 0 102 37l121 -44q-37 -55 -95 -83t-123 -28q-121 0 -193 67q-71 -67 -186 -67q-112 0 -187.5 67t-75.5 195zM287 392
q-49 0 -78.5 -34t-29.5 -108t29 -109t79 -35q49 0 78 35t29 109t-29.5 108t-77.5 34zM664 396q-46 0 -78.5 -24.5t-38.5 -72.5h226q-1 46 -31.5 71.5t-77.5 25.5z" />
    <glyph glyph-name="Racute" unicode="&#x154;" horiz-adv-x="654" 
d="M202 0h-158v668h257q69 0 121 -9.5t94.5 -31.5t65 -64t22.5 -102q0 -149 -161 -192l194 -269h-183l-181 252h-71v-252zM306 535h-104v-151h104q63 0 97 16t34 59t-34.5 59.5t-96.5 16.5zM387 731h-125q119 133 119 134l5 5q17 15 38 15q23 0 39.5 -16.5t16.5 -39.5
q0 -24 -19 -43z" />
    <glyph glyph-name="racute" unicode="&#x155;" horiz-adv-x="372" 
d="M202 0h-152v496h120l27 -91q43 111 160 105v-152q-24 3 -41 3q-114 0 -114 -111v-250zM270 574h-114l111 135q14 18 41 18q24 0 40 -16t16 -40q0 -26 -19 -42z" />
    <glyph glyph-name="Rcaron" unicode="&#x158;" horiz-adv-x="654" 
d="M44 0v668h257q69 0 121 -9.5t94.5 -31.5t65 -64t22.5 -102q0 -149 -161 -192l194 -269h-183l-181 252h-71v-252h-158zM306 535h-104v-151h104q63 0 97 16t34 59t-34.5 59.5t-96.5 16.5zM258 744l-147 133h129l68 -61l68 61h128l-146 -133q-22 -19 -50 -19q-29 0 -50 19z
" />
    <glyph glyph-name="rcaron" unicode="&#x159;" horiz-adv-x="372" 
d="M50 0v496h120l27 -91q43 111 160 105v-152q-24 3 -41 3q-114 0 -114 -111v-250h-152zM25 720h129l68 -61l68 61h128l-146 -133q-22 -19 -50 -19q-29 0 -50 19z" />
    <glyph glyph-name="Sacute" unicode="&#x15a;" horiz-adv-x="619" 
d="M314 -12q-109 0 -183.5 44t-105.5 125l144 52q26 -94 146 -94q49 0 84 17t35 53q0 60 -122 84l-81 16q-203 39 -203 188q0 68 44 116.5t106 69.5t133 21q87 0 156.5 -36t99.5 -109l-143 -52q-28 70 -127 70q-47 0 -77 -17t-30 -47q0 -25 20.5 -43t55.5 -25l90 -18
q40 -8 67.5 -15.5t63 -22.5t57 -34.5t37 -50.5t15.5 -71q0 -101 -85.5 -161t-196.5 -60zM379 731h-125q119 133 119 134l5 5q17 15 38 15q23 0 39.5 -16.5t16.5 -39.5q0 -24 -19 -43z" />
    <glyph glyph-name="sacute" unicode="&#x15b;" horiz-adv-x="534" 
d="M264 -12q-88 0 -151.5 32.5t-91.5 93.5l129 47q22 -62 117 -62q39 0 66.5 12t27.5 34q0 31 -77 45l-89 15q-75 12 -118.5 50t-43.5 98q0 75 65.5 116t162.5 41q76 0 135 -27t85 -83l-128 -47q-13 46 -93 46q-82 0 -82 -40q0 -29 61 -40l92 -17q93 -17 134.5 -48.5
t41.5 -91.5q0 -84 -69 -129t-174 -45zM211 574l111 135q14 18 41 18q24 0 40 -16t16 -40q0 -26 -19 -42l-75 -55h-114z" />
    <glyph glyph-name="Scedilla" unicode="&#x15e;" horiz-adv-x="619" 
d="M25 157l144 52q26 -94 146 -94q49 0 84 17t35 53q0 60 -122 84l-81 16q-203 39 -203 188q0 68 44 116.5t106 69.5t133 21q87 0 156.5 -36t99.5 -109l-143 -52q-28 70 -127 70q-47 0 -77 -17t-30 -47q0 -25 20.5 -43t55.5 -25l90 -18q40 -8 67.5 -15.5t63 -22.5t57 -34.5
t37 -50.5t15.5 -71q0 -95 -76 -154t-181 -66l-23 -37q14 3 34 3q34 0 60 -15t26 -47q0 -41 -36.5 -60.5t-90.5 -19.5q-47 0 -88 13l16 50q24 -13 61 -13q44 0 44 27q0 26 -37 26q-12 0 -27 -5q-9 -3 -17 2q-8 4 -10 12t2 16l29 48q-96 6 -162 49.5t-95 118.5z" />
    <glyph glyph-name="scedilla" unicode="&#x15f;" horiz-adv-x="534" 
d="M235 -11q-162 11 -214 125l129 47q22 -62 117 -62q39 0 66.5 12t27.5 34q0 31 -77 45l-89 15q-75 12 -118.5 50t-43.5 98q0 75 65.5 116t162.5 41q76 0 135 -27t85 -83l-128 -47q-13 46 -93 46q-82 0 -82 -40q0 -29 61 -40l92 -17q93 -17 134.5 -48.5t41.5 -91.5
q0 -78 -60 -122.5t-156 -50.5l-23 -37q13 3 34 3q34 0 60 -15t26 -47q0 -41 -36.5 -60.5t-90.5 -19.5q-47 0 -88 13l16 50q24 -13 61 -13q44 0 44 27q0 26 -37 26q-12 0 -27 -5q-9 -3 -17 2q-8 4 -10 12t2 16z" />
    <glyph glyph-name="Scaron" unicode="&#x160;" horiz-adv-x="619" 
d="M25 157l144 52q26 -94 146 -94q49 0 84 17t35 53q0 60 -122 84l-81 16q-203 39 -203 188q0 68 44 116.5t106 69.5t133 21q87 0 156.5 -36t99.5 -109l-143 -52q-28 70 -127 70q-47 0 -77 -17t-30 -47q0 -25 20.5 -43t55.5 -25l90 -18q40 -8 67.5 -15.5t63 -22.5t57 -34.5
t37 -50.5t15.5 -71q0 -101 -85.5 -161t-196.5 -60q-109 0 -183.5 44t-105.5 125zM262 744l-147 133h129l68 -61l68 61h128l-146 -133q-22 -19 -50 -19q-29 0 -50 19z" />
    <glyph glyph-name="scaron" unicode="&#x161;" horiz-adv-x="534" 
d="M264 -12q-88 0 -151.5 32.5t-91.5 93.5l129 47q22 -62 117 -62q39 0 66.5 12t27.5 34q0 31 -77 45l-89 15q-75 12 -118.5 50t-43.5 98q0 75 65.5 116t162.5 41q76 0 135 -27t85 -83l-128 -47q-13 46 -93 46q-82 0 -82 -40q0 -29 61 -40l92 -17q93 -17 134.5 -48.5
t41.5 -91.5q0 -84 -69 -129t-174 -45zM213 587l-147 133h129l68 -61l68 61h128l-146 -133q-22 -19 -50 -19q-29 0 -50 19z" />
    <glyph glyph-name="uni0162" unicode="&#x162;" horiz-adv-x="617" 
d="M15 668h587v-139h-215v-529h-157v529h-215v139zM241 -251l-52 45q48 0 75 16t27 45q0 20 -19.5 36.5t-48.5 23.5l102 40q84 -34 84 -96q0 -48 -44.5 -79t-123.5 -31z" />
    <glyph glyph-name="uni0163" unicode="&#x163;" horiz-adv-x="379" 
d="M355 380h-108v-200q0 -34 13 -45t51 -11h44v-124h-96q-95 0 -129.5 27.5t-34.5 112.5v240h-82v116h82v124h152v-124h108v-116zM126 -251l-52 45q48 0 75 16t27 45q0 20 -19.5 36.5t-48.5 23.5l102 40q84 -34 84 -96q0 -48 -44.5 -79t-123.5 -31z" />
    <glyph glyph-name="Tcaron" unicode="&#x164;" horiz-adv-x="617" 
d="M230 529h-215v139h587v-139h-215v-529h-157v529zM259 744l-147 133h129l68 -61l68 61h128l-146 -133q-22 -19 -50 -19q-29 0 -50 19z" />
    <glyph glyph-name="tcaron" unicode="&#x165;" horiz-adv-x="379" 
d="M13 380v116h82v124h152v-124h108v-116h-108v-200q0 -34 13 -45t51 -11h44v-124h-96q-95 0 -129.5 27.5t-34.5 112.5v240h-82zM374 553h-80l24 145q4 22 20.5 34.5t35.5 12.5q24 0 39.5 -17.5t15.5 -39.5q0 -10 -3 -17z" />
    <glyph glyph-name="Umacron" unicode="&#x16a;" horiz-adv-x="657" 
d="M41 292v376h158v-389q0 -83 26 -122.5t104 -39.5q77 0 103 39.5t26 122.5v389h158v-376q0 -157 -67 -230.5t-220 -73.5q-154 0 -221 73.5t-67 230.5zM179 845h299v-98h-299v98z" />
    <glyph glyph-name="umacron" unicode="&#x16b;" horiz-adv-x="570" 
d="M50 496h152v-260q0 -26 0.5 -41t4.5 -34.5t12 -29.5t22.5 -17.5t36.5 -7.5q48 0 68 30t20 99v261h153v-496h-132l-21 70q-24 -40 -57 -61t-87 -21q-95 0 -133.5 51.5t-38.5 158.5v298zM136 668h299v-98h-299v98z" />
    <glyph glyph-name="Uring" unicode="&#x16e;" horiz-adv-x="657" 
d="M329 -12q-154 0 -221 73.5t-67 230.5v376h158v-389q0 -83 26 -122.5t104 -39.5q77 0 103 39.5t26 122.5v389h158v-376q0 -157 -67 -230.5t-220 -73.5zM328 646q-55 0 -93.5 39t-38.5 94t38.5 93.5t93.5 38.5t94 -38.5t39 -93.5t-39 -94t-94 -39zM328 826q-20 0 -33.5 -14
t-13.5 -33t13.5 -33t33.5 -14t33.5 14t13.5 33t-13.5 33t-33.5 14z" />
    <glyph glyph-name="uring" unicode="&#x16f;" horiz-adv-x="570" 
d="M222 -12q-95 0 -133.5 51.5t-38.5 158.5v298h152v-260q0 -26 0.5 -41t4.5 -34.5t12 -29.5t22.5 -17.5t36.5 -7.5q48 0 68 30t20 99v261h153v-496h-132l-21 70q-24 -40 -57 -61t-87 -21zM285 535q-55 0 -93.5 39t-38.5 94t38.5 93.5t93.5 38.5t94 -38.5t39 -93.5t-39 -94
t-94 -39zM238 668q0 -20 14 -33.5t33 -13.5t33 13.5t14 33.5t-14 33.5t-33 13.5t-33 -13.5t-14 -33.5z" />
    <glyph glyph-name="Uhungarumlaut" unicode="&#x170;" horiz-adv-x="657" 
d="M41 292v376h158v-389q0 -83 26 -122.5t104 -39.5q77 0 103 39.5t26 122.5v389h158v-376q0 -157 -67 -230.5t-220 -73.5q-154 0 -221 73.5t-67 230.5zM156 746l109 133l3 3q4 4 8.5 7.5t13 6.5t18.5 3q24 0 40 -16t16 -40q0 -26 -19 -42l-75 -55h-114zM472 746h-114
l109 133l3 3q4 4 8.5 7.5t13 6.5t18.5 3q24 0 40 -16t16 -40q0 -26 -19 -42z" />
    <glyph glyph-name="uhungarumlaut" unicode="&#x171;" horiz-adv-x="570" 
d="M222 -12q-95 0 -133.5 51.5t-38.5 158.5v298h152v-260q0 -26 0.5 -41t4.5 -34.5t12 -29.5t22.5 -17.5t36.5 -7.5q48 0 68 30t20 99v261h153v-496h-132l-21 70q-24 -40 -57 -61t-87 -21zM234 574h-114l109 133l3 3q4 4 8.5 7.5t13 6.5t18.5 3q24 0 40 -16t16 -40
q0 -26 -19 -42zM322 574l109 133l3 3q4 4 8.5 7.5t13 6.5t18.5 3q24 0 40 -16t16 -40q0 -26 -19 -42l-75 -55h-114z" />
    <glyph glyph-name="Uogonek" unicode="&#x172;" horiz-adv-x="657" 
d="M41 668h158v-389q0 -83 26 -122.5t104 -39.5q77 0 103 39.5t26 122.5v389h158v-376q0 -134 -48.5 -207t-156.5 -91q-28 -9 -49 -26t-21 -36q0 -30 46 -30q13 0 49 9v-75q-30 -10 -79 -10q-73 0 -107.5 27.5t-34.5 61.5q0 48 56 76q-122 13 -176 86t-54 215v376z" />
    <glyph glyph-name="uogonek" unicode="&#x173;" 
d="M51 198v298h152v-260q0 -26 0.5 -41t4.5 -34.5t12 -29.5t22.5 -17.5t36.5 -7.5q48 0 68 30t20 99v261h153v-496q-5 -3 -15 -7.5t-15.5 -7.5t-14.5 -7.5t-14 -7.5t-11.5 -7t-10 -7.5l-7.5 -7.5t-5.5 -8t-1.5 -8q0 -30 46 -30q13 0 49 9v-75q-30 -10 -79 -10
q-73 0 -107.5 27.5t-34.5 61.5q0 31 27 55t61 32l-20 68q-24 -40 -57 -61t-87 -21q-95 0 -133.5 51.5t-38.5 158.5z" />
    <glyph glyph-name="Ydieresis" unicode="&#x178;" horiz-adv-x="687" 
d="M265 260l-255 408h184l149 -257l149 257h185l-255 -408v-260h-157v260zM177 796q0 29 21 50t50 21t49.5 -21t20.5 -50t-20.5 -49.5t-49.5 -20.5t-50 20.5t-21 49.5zM371 796q0 29 21 50t50 21q28 0 48.5 -21t20.5 -50t-20 -49.5t-49 -20.5t-50 20.5t-21 49.5z" />
    <glyph glyph-name="Zacute" unicode="&#x179;" horiz-adv-x="621" 
d="M589 0h-557v121l337 408h-322v139h527v-121l-334 -408h349v-139zM379 731h-125q119 133 119 134l5 5q17 15 38 15q23 0 39.5 -16.5t16.5 -39.5q0 -24 -19 -43z" />
    <glyph glyph-name="zacute" unicode="&#x17a;" horiz-adv-x="516" 
d="M496 0h-466v121l257 254h-243v121h438v-121l-256 -254h270v-121zM211 574l111 135q14 18 41 18q24 0 40 -16t16 -40q0 -26 -19 -42l-75 -55h-114z" />
    <glyph glyph-name="Zdotaccent" unicode="&#x17b;" horiz-adv-x="621" 
d="M32 121l337 408h-322v139h527v-121l-334 -408h349v-139h-557v121zM312 726q-29 0 -50 20.5t-21 49.5t21 50t50 21t49.5 -21t20.5 -50t-20.5 -49.5t-49.5 -20.5z" />
    <glyph glyph-name="zdotaccent" unicode="&#x17c;" horiz-adv-x="516" 
d="M496 0h-466v121l257 254h-243v121h438v-121l-256 -254h270v-121zM193 648q0 29 21 50t50 21t49.5 -21t20.5 -50t-20.5 -49.5t-49.5 -20.5t-50 20.5t-21 49.5z" />
    <glyph glyph-name="Zcaron" unicode="&#x17d;" horiz-adv-x="621" 
d="M589 0h-557v121l337 408h-322v139h527v-121l-334 -408h349v-139zM114 877h129l68 -61l68 61h128l-146 -133q-22 -19 -50 -19q-29 0 -50 19z" />
    <glyph glyph-name="zcaron" unicode="&#x17e;" horiz-adv-x="516" 
d="M30 121l257 254h-243v121h438v-121l-256 -254h270v-121h-466v121zM67 720h129l68 -61l68 61h128l-146 -133q-22 -19 -50 -19q-29 0 -50 19z" />
    <glyph glyph-name="florin" unicode="&#x192;" horiz-adv-x="377" 
d="M15 496h82v82q0 86 44 118.5t147 32.5h69v-121h-42q-41 0 -53.5 -8t-12.5 -36v-68h108v-115h-108v-397q0 -57 -23.5 -95t-61.5 -52q-26 -9 -71 -9q-41 0 -78 8v133q40 -7 60 5q14 9 18 22.5t4 42.5v342h-82v115z" />
    <glyph glyph-name="florin" unicode="&#xe997;" horiz-adv-x="377" 
d="M15 496h82v82q0 86 44 118.5t147 32.5h69v-121h-42q-41 0 -53.5 -8t-12.5 -36v-68h108v-115h-108v-397q0 -57 -23.5 -95t-61.5 -52q-26 -9 -71 -9q-41 0 -78 8v133q40 -7 60 5q14 9 18 22.5t4 42.5v342h-82v115z" />
    <glyph glyph-name="uni0218" unicode="&#x218;" horiz-adv-x="619" 
d="M356 403q40 -8 67.5 -15.5t63 -22.5t57 -34.5t37 -50.5t15.5 -71q0 -101 -85.5 -161t-196.5 -60q-109 0 -183.5 44t-105.5 125l144 52q26 -94 146 -94q49 0 84 17t35 53q0 60 -122 84l-81 16q-203 39 -203 188q0 68 44 116.5t106 69.5t133 21q87 0 156.5 -36t99.5 -109
l-143 -52q-28 70 -127 70q-47 0 -77 -17t-30 -47q0 -25 20.5 -43t55.5 -25zM243 -251l-52 45q48 0 75 16t27 45q0 20 -19.5 36.5t-48.5 23.5l102 40q84 -34 84 -96q0 -48 -44.5 -79t-123.5 -31z" />
    <glyph glyph-name="uni0219" unicode="&#x219;" horiz-adv-x="534" 
d="M331 302q93 -17 134.5 -48.5t41.5 -91.5q0 -84 -69 -129t-174 -45q-88 0 -151.5 32.5t-91.5 93.5l129 47q22 -62 117 -62q39 0 66.5 12t27.5 34q0 31 -77 45l-89 15q-75 12 -118.5 50t-43.5 98q0 75 65.5 116t162.5 41q76 0 135 -27t85 -83l-128 -47q-13 46 -93 46
q-82 0 -82 -40q0 -29 61 -40zM195 -251l-52 45q48 0 75 16t27 45q0 20 -19.5 36.5t-48.5 23.5l102 40q84 -34 84 -96q0 -48 -44.5 -79t-123.5 -31z" />
    <glyph glyph-name="uni021A" unicode="&#x21a;" horiz-adv-x="617" 
d="M15 668h587v-139h-215v-529h-157v529h-215v139zM241 -251l-52 45q48 0 75 16t27 45q0 20 -19.5 36.5t-48.5 23.5l102 40q84 -34 84 -96q0 -48 -44.5 -79t-123.5 -31z" />
    <glyph glyph-name="uni021B" unicode="&#x21b;" horiz-adv-x="379" 
d="M355 380h-108v-200q0 -34 13 -45t51 -11h44v-124h-96q-95 0 -129.5 27.5t-34.5 112.5v240h-82v116h82v124h152v-124h108v-116zM126 -251l-52 45q48 0 75 16t27 45q0 20 -19.5 36.5t-48.5 23.5l102 40q84 -34 84 -96q0 -48 -44.5 -79t-123.5 -31z" />
    <glyph glyph-name="circumflex" unicode="&#x2c6;" horiz-adv-x="467" 
d="M166 574h-129l147 132q22 20 50 20q27 0 50 -20l146 -132h-128l-68 61z" />
    <glyph glyph-name="circumflex" unicode="&#xe998;" horiz-adv-x="467" 
d="M166 574h-129l147 132q22 20 50 20q27 0 50 -20l146 -132h-128l-68 61z" />
    <glyph glyph-name="caron" unicode="&#x2c7;" horiz-adv-x="467" 
d="M37 720h129l68 -61l68 61h128l-146 -133q-22 -19 -50 -19q-29 0 -50 19z" />
    <glyph glyph-name="caron" unicode="&#xe999;" horiz-adv-x="467" 
d="M37 720h129l68 -61l68 61h128l-146 -133q-22 -19 -50 -19q-29 0 -50 19z" />
    <glyph glyph-name="uni02C9" unicode="&#x2c9;" horiz-adv-x="373" 
d="M336 550h-299v98h299v-98z" />
    <glyph glyph-name="breve" unicode="&#x2d8;" horiz-adv-x="373" 
d="M57 689h85q4 -17 20.5 -30t37.5 -13t38 13t21 30h85q-9 -51 -49.5 -85.5t-94.5 -34.5q-53 0 -93.5 34.5t-49.5 85.5z" />
    <glyph glyph-name="breve" unicode="&#xe99b;" horiz-adv-x="373" 
d="M57 689h85q4 -17 20.5 -30t37.5 -13t38 13t21 30h85q-9 -51 -49.5 -85.5t-94.5 -34.5q-53 0 -93.5 34.5t-49.5 85.5z" />
    <glyph glyph-name="dotaccent" unicode="&#x2d9;" horiz-adv-x="201" 
d="M30 648q0 29 21 50t50 21t49.5 -21t20.5 -50t-20.5 -49.5t-49.5 -20.5t-50 20.5t-21 49.5z" />
    <glyph glyph-name="dotaccent" unicode="&#xe99c;" horiz-adv-x="201" 
d="M30 648q0 29 21 50t50 21t49.5 -21t20.5 -50t-20.5 -49.5t-49.5 -20.5t-50 20.5t-21 49.5z" />
    <glyph glyph-name="ring" unicode="&#x2da;" horiz-adv-x="295" 
d="M147 535q-55 0 -93.5 39t-38.5 94t38.5 93.5t93.5 38.5t94 -38.5t39 -93.5t-39 -94t-94 -39zM100 668q0 -20 14 -33.5t33 -13.5t33 13.5t14 33.5t-14 33.5t-33 13.5t-33 -13.5t-14 -33.5z" />
    <glyph glyph-name="ogonek" unicode="&#x2db;" horiz-adv-x="295" 
d="M179 -174q-73 0 -107.5 27.5t-34.5 61.5q0 60 80 85h141q-5 -3 -15 -7.5t-15.5 -7.5t-14.5 -7.5t-14 -7.5t-11.5 -7t-10 -7.5l-7.5 -7.5t-5.5 -8t-1.5 -8q0 -30 46 -30q13 0 49 9v-75q-30 -10 -79 -10z" />
    <glyph glyph-name="ogonek" unicode="&#xe99e;" horiz-adv-x="295" 
d="M179 -174q-73 0 -107.5 27.5t-34.5 61.5q0 60 80 85h141q-5 -3 -15 -7.5t-15.5 -7.5t-14.5 -7.5t-14 -7.5t-11.5 -7t-10 -7.5l-7.5 -7.5t-5.5 -8t-1.5 -8q0 -30 46 -30q13 0 49 9v-75q-30 -10 -79 -10z" />
    <glyph glyph-name="tilde" unicode="&#x2dc;" horiz-adv-x="444" 
d="M37 574q19 115 125 115q34 0 70 -20.5t54 -20.5q24 0 43 21q18 20 36 20q26 0 37.5 -20.5t-1.5 -42.5q-15 -27 -45.5 -42t-63.5 -15q-36 0 -68 16q-6 3 -15.5 8t-13.5 7.5t-10.5 4.5t-12.5 2q-40 2 -46 -33h-89z" />
    <glyph glyph-name="tilde" unicode="&#xe99f;" horiz-adv-x="444" 
d="M37 574q19 115 125 115q34 0 70 -20.5t54 -20.5q24 0 43 21q18 20 36 20q26 0 37.5 -20.5t-1.5 -42.5q-15 -27 -45.5 -42t-63.5 -15q-36 0 -68 16q-6 3 -15.5 8t-13.5 7.5t-10.5 4.5t-12.5 2q-40 2 -46 -33h-89z" />
    <glyph glyph-name="hungarumlaut" unicode="&#x2dd;" horiz-adv-x="490" 
d="M37 574l109 133l4 3q3 4 7.5 7.5t13 6.5t18.5 3q24 0 40 -16t16 -40q0 -26 -19 -42l-75 -55h-114zM353 574h-114l109 133l4 3q3 4 7.5 7.5t13 6.5t18.5 3q24 0 40 -16t16 -40q0 -26 -19 -42z" />
    <glyph glyph-name="hungarumlaut" unicode="&#xe9c5;" horiz-adv-x="490" 
d="M37 574l109 133l4 3q3 4 7.5 7.5t13 6.5t18.5 3q24 0 40 -16t16 -40q0 -26 -19 -42l-75 -55h-114zM353 574h-114l109 133l4 3q3 4 7.5 7.5t13 6.5t18.5 3q24 0 40 -16t16 -40q0 -26 -19 -42z" />
    <glyph glyph-name="uni0326" unicode="&#x326;" horiz-adv-x="280" 
d="M76 -251l-52 45q48 0 75 16t27 45q0 20 -19.5 36.5t-48.5 23.5l102 40q84 -34 84 -96q0 -48 -44.5 -79t-123.5 -31z" />
    <glyph glyph-name="uni0394" unicode="&#x394;" horiz-adv-x="715" 
d="M357 418l-128 -303h256zM357 680l317 -680h-633z" />
    <glyph glyph-name="uni0394" unicode="&#xe9b7;" horiz-adv-x="715" 
d="M357 418l-128 -303h256zM357 680l317 -680h-633z" />
    <glyph glyph-name="uni03A9" unicode="&#x3a9;" horiz-adv-x="668" 
d="M41 0v115h137v24q-63 40 -100 105.5t-37 141.5q0 122 86 208t207 86t207 -86t86 -208q0 -76 -37 -141.5t-100 -105.5v-24h137v-115h-268v223q62 9 104 57t42 112q0 71 -50 121.5t-121 50.5t-121.5 -50.5t-50.5 -121.5q0 -63 42 -111.5t105 -57.5v-223h-268z" />
    <glyph glyph-name="uni03A9" unicode="&#xe9b4;" horiz-adv-x="668" 
d="M41 0v115h137v24q-63 40 -100 105.5t-37 141.5q0 122 86 208t207 86t207 -86t86 -208q0 -76 -37 -141.5t-100 -105.5v-24h137v-115h-268v223q62 9 104 57t42 112q0 71 -50 121.5t-121 50.5t-121.5 -50.5t-50.5 -121.5q0 -63 42 -111.5t105 -57.5v-223h-268z" />
    <glyph glyph-name="uni03BC" unicode="&#x3bc;" horiz-adv-x="570" 
d="M50 -162v657h152v-265q0 -73 16 -98.5t59 -25.5q49 0 69 27.5t20 96.5v265h153v-495h-138l-13 43q-31 -55 -89 -55q-44 0 -77 30v-180h-152z" />
    <glyph glyph-name="uni03BC" unicode="&#xe945;" horiz-adv-x="570" 
d="M50 -162v657h152v-265q0 -73 16 -98.5t59 -25.5q49 0 69 27.5t20 96.5v265h153v-495h-138l-13 43q-31 -55 -89 -55q-44 0 -77 30v-180h-152z" />
    <glyph glyph-name="pi" unicode="&#x3c0;" horiz-adv-x="671" 
d="M41 496h589v-116h-88v-229q0 -28 11 -37t44 -9h33v-105h-78q-79 0 -108.5 23.5t-29.5 94.5v262h-154v-380h-128v380h-91v116z" />
    <glyph glyph-name="pi" unicode="&#xe9a0;" horiz-adv-x="671" 
d="M41 496h589v-116h-88v-229q0 -28 11 -37t44 -9h33v-105h-78q-79 0 -108.5 23.5t-29.5 94.5v262h-154v-380h-128v380h-91v116z" />
    <glyph glyph-name="endash" unicode="&#x2013;" horiz-adv-x="508" 
d="M467 185h-426v128h426v-128z" />
    <glyph glyph-name="emdash" unicode="&#x2014;" horiz-adv-x="842" 
d="M801 185h-760v128h760v-128z" />
    <glyph glyph-name="quoteleft" unicode="&#x2018;" horiz-adv-x="277" 
d="M41 437q0 16 7 35l76 196h90l-53 -137q33 -8 54 -34t21 -60q0 -40 -28.5 -69t-68.5 -29q-41 0 -69.5 28.5t-28.5 69.5z" />
    <glyph glyph-name="quoteleft" unicode="&#xe9a3;" horiz-adv-x="277" 
d="M41 437q0 16 7 35l76 196h90l-53 -137q33 -8 54 -34t21 -60q0 -40 -28.5 -69t-68.5 -29q-41 0 -69.5 28.5t-28.5 69.5z" />
    <glyph glyph-name="quoteright" unicode="&#x2019;" horiz-adv-x="277" 
d="M116 487q-33 8 -54 34.5t-21 60.5q0 40 28.5 69t69.5 29q40 0 68.5 -29t28.5 -69q0 -18 -6 -35l-77 -196h-90z" />
    <glyph glyph-name="quoteright" unicode="&#xe9a4;" horiz-adv-x="277" 
d="M116 487q-33 8 -54 34.5t-21 60.5q0 40 28.5 69t69.5 29q40 0 68.5 -29t28.5 -69q0 -18 -6 -35l-77 -196h-90z" />
    <glyph glyph-name="quotesinglbase" unicode="&#x201a;" horiz-adv-x="277" 
d="M116 -9q-33 8 -54 34.5t-21 60.5q0 40 28.5 69t69.5 29q40 0 68.5 -29t28.5 -69q0 -18 -6 -35l-77 -197h-90z" />
    <glyph glyph-name="quotesinglbase" unicode="&#xe9a5;" horiz-adv-x="277" 
d="M116 -9q-33 8 -54 34.5t-21 60.5q0 40 28.5 69t69.5 29q40 0 68.5 -29t28.5 -69q0 -18 -6 -35l-77 -197h-90z" />
    <glyph glyph-name="quotedblleft" unicode="&#x201c;" horiz-adv-x="498" 
d="M41 437q0 16 7 35l76 196h90l-53 -137q33 -8 54 -34t21 -60q0 -40 -28.5 -69t-68.5 -29q-41 0 -69.5 28.5t-28.5 69.5zM263 437q0 16 7 35l75 196h91l-54 -137q33 -8 54 -34t21 -60q0 -41 -28.5 -69.5t-68.5 -28.5t-68.5 29t-28.5 69z" />
    <glyph glyph-name="quotedblleft" unicode="&#xe9a6;" horiz-adv-x="498" 
d="M41 437q0 16 7 35l76 196h90l-53 -137q33 -8 54 -34t21 -60q0 -40 -28.5 -69t-68.5 -29q-41 0 -69.5 28.5t-28.5 69.5zM263 437q0 16 7 35l75 196h91l-54 -137q33 -8 54 -34t21 -60q0 -41 -28.5 -69.5t-68.5 -28.5t-68.5 29t-28.5 69z" />
    <glyph glyph-name="quotedblright" unicode="&#x201d;" horiz-adv-x="498" 
d="M41 582q0 40 28.5 69t69.5 29q40 0 68.5 -29t28.5 -69q0 -18 -6 -35l-77 -196h-90l53 136q-33 8 -54 34.5t-21 60.5zM263 582q0 40 28.5 69t68.5 29t68.5 -28.5t28.5 -69.5q0 -18 -6 -35l-77 -196h-89l53 136q-33 8 -54 34.5t-21 60.5z" />
    <glyph glyph-name="quotedblright" unicode="&#xe9a7;" horiz-adv-x="498" 
d="M41 582q0 40 28.5 69t69.5 29q40 0 68.5 -29t28.5 -69q0 -18 -6 -35l-77 -196h-90l53 136q-33 8 -54 34.5t-21 60.5zM263 582q0 40 28.5 69t68.5 29t68.5 -28.5t28.5 -69.5q0 -18 -6 -35l-77 -196h-89l53 136q-33 8 -54 34.5t-21 60.5z" />
    <glyph glyph-name="quotedblbase" unicode="&#x201e;" horiz-adv-x="498" 
d="M41 86q0 40 28.5 69t69.5 29q40 0 68.5 -29t28.5 -69q0 -18 -6 -35l-77 -197h-90l53 137q-33 8 -54 34.5t-21 60.5zM263 86q0 40 28.5 69t68.5 29t68.5 -28.5t28.5 -69.5q0 -18 -6 -35l-77 -197h-89l53 137q-33 8 -54 34.5t-21 60.5z" />
    <glyph glyph-name="quotedblbase" unicode="&#xe9a8;" horiz-adv-x="498" 
d="M41 86q0 40 28.5 69t69.5 29q40 0 68.5 -29t28.5 -69q0 -18 -6 -35l-77 -197h-90l53 137q-33 8 -54 34.5t-21 60.5zM263 86q0 40 28.5 69t68.5 29t68.5 -28.5t28.5 -69.5q0 -18 -6 -35l-77 -197h-89l53 137q-33 8 -54 34.5t-21 60.5z" />
    <glyph glyph-name="dagger" unicode="&#x2020;" horiz-adv-x="594" 
d="M225 380h-184v116h184v172h144v-172h184v-116h-184v-380h-144v380z" />
    <glyph glyph-name="dagger" unicode="&#xe9a9;" horiz-adv-x="594" 
d="M225 380h-184v116h184v172h144v-172h184v-116h-184v-380h-144v380z" />
    <glyph glyph-name="daggerdbl" unicode="&#x2021;" horiz-adv-x="594" 
d="M41 380v116h184v172h144v-172h184v-116h-184v-92h184v-115h-184v-173h-144v173h-184v115h184v92h-184z" />
    <glyph glyph-name="daggerdbl" unicode="&#xe9aa;" horiz-adv-x="594" 
d="M41 380v116h184v172h144v-172h184v-116h-184v-92h184v-115h-184v-173h-144v173h-184v115h184v92h-184z" />
    <glyph glyph-name="bullet" unicode="&#x2022;" horiz-adv-x="438" 
d="M53 254q0 69 48.5 117.5t117.5 48.5t117.5 -48.5t48.5 -117.5q0 -68 -48.5 -117t-117.5 -49t-117.5 49t-48.5 117z" />
    <glyph glyph-name="ellipsis" unicode="&#x2026;" horiz-adv-x="803" 
d="M567 86q0 40 28.5 69t69.5 29q40 0 68.5 -28.5t28.5 -69.5t-28.5 -69.5t-68.5 -28.5q-41 0 -69.5 29t-28.5 69zM41 86q0 40 28.5 69t69.5 29q40 0 68.5 -29t28.5 -69t-28.5 -69t-68.5 -29q-41 0 -69.5 29t-28.5 69zM305 86q0 41 28 69.5t68 28.5q41 0 69.5 -29t28.5 -69
t-28.5 -69t-69.5 -29q-40 0 -68 28.5t-28 69.5z" />
    <glyph glyph-name="ellipsis" unicode="&#xe9ac;" horiz-adv-x="803" 
d="M567 86q0 40 28.5 69t69.5 29q40 0 68.5 -28.5t28.5 -69.5t-28.5 -69.5t-68.5 -28.5q-41 0 -69.5 29t-28.5 69zM41 86q0 40 28.5 69t69.5 29q40 0 68.5 -29t28.5 -69t-28.5 -69t-68.5 -29q-41 0 -69.5 29t-28.5 69zM305 86q0 41 28 69.5t68 28.5q41 0 69.5 -29t28.5 -69
t-28.5 -69t-69.5 -29q-40 0 -68 28.5t-28 69.5z" />
    <glyph glyph-name="perthousand" unicode="&#x2030;" horiz-adv-x="1440" 
d="M773 -12q-82 0 -139.5 58t-57.5 140t57.5 139t139.5 57t139.5 -57t57.5 -139t-57.5 -140t-139.5 -58zM1005 186q0 82 57.5 139t139.5 57t139.5 -57t57.5 -139t-57.5 -140t-139.5 -58t-139.5 58t-57.5 140zM238 286q-82 0 -139.5 57.5t-57.5 139.5t57.5 139.5t139.5 57.5
q81 0 139 -57.5t58 -139.5t-58 -139.5t-139 -57.5zM335 0h-126l467 668h127zM694 186q0 -33 23.5 -56t55.5 -23t55.5 23t23.5 56q0 32 -23.5 55t-55.5 23t-55.5 -23t-23.5 -55zM1123 186q0 -33 23 -56t56 -23q32 0 55 23t23 56q0 32 -23 55t-55 23q-33 0 -56 -23t-23 -55z
M160 483q0 -33 23 -56t55 -23q33 0 56 23t23 56q0 32 -23 55t-56 23q-32 0 -55 -23t-23 -55z" />
    <glyph glyph-name="perthousand" unicode="&#xe9ad;" horiz-adv-x="1440" 
d="M773 -12q-82 0 -139.5 58t-57.5 140t57.5 139t139.5 57t139.5 -57t57.5 -139t-57.5 -140t-139.5 -58zM1005 186q0 82 57.5 139t139.5 57t139.5 -57t57.5 -139t-57.5 -140t-139.5 -58t-139.5 58t-57.5 140zM238 286q-82 0 -139.5 57.5t-57.5 139.5t57.5 139.5t139.5 57.5
q81 0 139 -57.5t58 -139.5t-58 -139.5t-139 -57.5zM335 0h-126l467 668h127zM694 186q0 -33 23.5 -56t55.5 -23t55.5 23t23.5 56q0 32 -23.5 55t-55.5 23t-55.5 -23t-23.5 -55zM1123 186q0 -33 23 -56t56 -23q32 0 55 23t23 56q0 32 -23 55t-55 23q-33 0 -56 -23t-23 -55z
M160 483q0 -33 23 -56t55 -23q33 0 56 23t23 56q0 32 -23 55t-56 23q-32 0 -55 -23t-23 -55z" />
    <glyph glyph-name="guilsinglleft" unicode="&#x2039;" horiz-adv-x="404" 
d="M363 40h-174l-148 210l148 211h173l-148 -211z" />
    <glyph glyph-name="guilsinglleft" unicode="&#xe9ae;" horiz-adv-x="404" 
d="M363 40h-174l-148 210l148 211h173l-148 -211z" />
    <glyph glyph-name="guilsinglright" unicode="&#x203a;" horiz-adv-x="404" 
d="M216 40h-175l150 209l-149 211h174l147 -211z" />
    <glyph glyph-name="guilsinglright" unicode="&#xe9af;" horiz-adv-x="404" 
d="M216 40h-175l150 209l-149 211h174l147 -211z" />
    <glyph glyph-name="fraction" unicode="&#x2044;" horiz-adv-x="624" 
d="M483 668h126l-467 -668h-127z" />
    <glyph glyph-name="fraction" unicode="&#xe9b0;" horiz-adv-x="624" 
d="M483 668h126l-467 -668h-127z" />
    <glyph glyph-name="Euro" unicode="&#x20ac;" horiz-adv-x="728" 
d="M131 366h-90l40 74h60q26 112 103.5 176t191.5 64q84 0 148.5 -41.5t99.5 -113.5l-129 -47q-37 72 -124 72q-45 0 -80 -29t-53 -81h186l-41 -74h-160q-2 -20 -2 -32q0 -5 0.5 -15t0.5 -14h127l-40 -74h-73q18 -55 54 -84t83 -29q92 0 126 71l128 -47q-36 -72 -103 -113
t-152 -41q-115 0 -191.5 64t-100.5 179h-98l40 74h49v61z" />
    <glyph glyph-name="Euro" unicode="&#xe9b1;" horiz-adv-x="728" 
d="M131 366h-90l40 74h60q26 112 103.5 176t191.5 64q84 0 148.5 -41.5t99.5 -113.5l-129 -47q-37 72 -124 72q-45 0 -80 -29t-53 -81h186l-41 -74h-160q-2 -20 -2 -32q0 -5 0.5 -15t0.5 -14h127l-40 -74h-73q18 -55 54 -84t83 -29q92 0 126 71l128 -47q-36 -72 -103 -113
t-152 -41q-115 0 -191.5 64t-100.5 179h-98l40 74h49v61z" />
    <glyph glyph-name="uni2113" unicode="&#x2113;" horiz-adv-x="504" 
d="M41 112v106l65 47v187q0 228 191 228q78 0 122 -39t44 -109q0 -73 -48.5 -131t-146.5 -129l-11 -8v-73q0 -43 15 -62t47 -19q39 0 79 31l57 -89q-71 -64 -170 -64q-81 0 -129.5 40t-49.5 129zM257 373l4 3q78 58 78 145q0 52 -40 52q-42 0 -42 -72v-128z" />
    <glyph glyph-name="uni2113" unicode="&#xe9b2;" horiz-adv-x="504" 
d="M41 112v106l65 47v187q0 228 191 228q78 0 122 -39t44 -109q0 -73 -48.5 -131t-146.5 -129l-11 -8v-73q0 -43 15 -62t47 -19q39 0 79 31l57 -89q-71 -64 -170 -64q-81 0 -129.5 40t-49.5 129zM257 373l4 3q78 58 78 145q0 52 -40 52q-42 0 -42 -72v-128z" />
    <glyph glyph-name="trademark" unicode="&#x2122;" horiz-adv-x="935" 
d="M415 301v367h173l66 -236l67 236h173v-367h-107v257l-84 -257h-97l-84 257v-257h-107zM41 575v93h350v-93h-120v-274h-109v274h-121z" />
    <glyph glyph-name="trademark" unicode="&#xe9b3;" horiz-adv-x="935" 
d="M415 301v367h173l66 -236l67 236h173v-367h-107v257l-84 -257h-97l-84 257v-257h-107zM41 575v93h350v-93h-120v-274h-109v274h-121z" />
    <glyph glyph-name="estimated" unicode="&#x212e;" horiz-adv-x="604" 
d="M303 -12q-109 0 -185.5 76.5t-76.5 184.5t76.5 184.5t185.5 76.5q107 0 183.5 -76.5t76.5 -184.5h-385v-145q52 -46 125 -46q90 0 147 70l68 -25q-36 -53 -93 -84t-122 -31zM178 394v-79h248v79q-52 46 -123 46q-73 0 -125 -46z" />
    <glyph glyph-name="estimated" unicode="&#xe9b5;" horiz-adv-x="604" 
d="M303 -12q-109 0 -185.5 76.5t-76.5 184.5t76.5 184.5t185.5 76.5q107 0 183.5 -76.5t76.5 -184.5h-385v-145q52 -46 125 -46q90 0 147 70l68 -25q-36 -53 -93 -84t-122 -31zM178 394v-79h248v79q-52 46 -123 46q-73 0 -125 -46z" />
    <glyph glyph-name="partialdiff" unicode="&#x2202;" horiz-adv-x="597" 
d="M289 -12q-106 0 -177 59t-71 165q0 92 65.5 157.5t158.5 65.5q116 0 177 -79q-7 103 -68 157.5t-202 46.5v120h10q26 0 42 -0.5t48.5 -3.5t55 -9t54.5 -18.5t54 -30t46.5 -46t39.5 -63.5t24.5 -85t9.5 -109q0 -105 -27 -172q-35 -84 -100 -119.5t-140 -35.5zM296 315
q-43 0 -73.5 -30.5t-30.5 -73.5t30.5 -73.5t73.5 -30.5t73 30.5t30 73.5t-30 73.5t-73 30.5z" />
    <glyph glyph-name="partialdiff" unicode="&#xe9b6;" horiz-adv-x="597" 
d="M289 -12q-106 0 -177 59t-71 165q0 92 65.5 157.5t158.5 65.5q116 0 177 -79q-7 103 -68 157.5t-202 46.5v120h10q26 0 42 -0.5t48.5 -3.5t55 -9t54.5 -18.5t54 -30t46.5 -46t39.5 -63.5t24.5 -85t9.5 -109q0 -105 -27 -172q-35 -84 -100 -119.5t-140 -35.5zM296 315
q-43 0 -73.5 -30.5t-30.5 -73.5t30.5 -73.5t73.5 -30.5t73 30.5t30 73.5t-30 73.5t-73 30.5z" />
    <glyph glyph-name="product" unicode="&#x220f;" horiz-adv-x="614" 
d="M169 -161h-128v829h532v-829h-128v713h-276v-713z" />
    <glyph glyph-name="product" unicode="&#xe9b8;" horiz-adv-x="614" 
d="M169 -161h-128v829h532v-829h-128v713h-276v-713z" />
    <glyph glyph-name="summation" unicode="&#x2211;" horiz-adv-x="617" 
d="M41 668h535v-128h-365l239 -286l-239 -288h365v-128h-535v128l237 288l-237 286v128z" />
    <glyph glyph-name="summation" unicode="&#xe9b9;" horiz-adv-x="617" 
d="M41 668h535v-128h-365l239 -286l-239 -288h365v-128h-535v128l237 288l-237 286v128z" />
    <glyph glyph-name="minus" unicode="&#x2212;" horiz-adv-x="594" 
d="M553 184h-512v128h512v-128z" />
    <glyph glyph-name="minus" unicode="&#xe9ba;" horiz-adv-x="594" 
d="M553 184h-512v128h512v-128z" />
    <glyph glyph-name="uni2215" unicode="&#x2215;" horiz-adv-x="651" 
d="M483 668h153l-468 -668h-153z" />
    <glyph glyph-name="uni2215" unicode="&#xe9bb;" horiz-adv-x="651" 
d="M483 668h153l-468 -668h-153z" />
    <glyph glyph-name="uni2219" unicode="&#x2219;" horiz-adv-x="277" 
d="M41 255q0 40 28.5 68t69.5 28q40 0 68.5 -28t28.5 -68t-28.5 -69t-68.5 -29q-41 0 -69.5 28.5t-28.5 69.5z" />
    <glyph glyph-name="uni2219" unicode="&#xe9bc;" horiz-adv-x="277" 
d="M41 255q0 40 28.5 68t69.5 28q40 0 68.5 -28t28.5 -68t-28.5 -69t-68.5 -29q-41 0 -69.5 28.5t-28.5 69.5z" />
    <glyph glyph-name="radical" unicode="&#x221a;" horiz-adv-x="709" 
d="M524 668h144l-219 -830h-156l-110 255h-142v132h233l80 -196z" />
    <glyph glyph-name="radical" unicode="&#xe9bd;" horiz-adv-x="709" 
d="M524 668h144l-219 -830h-156l-110 255h-142v132h233l80 -196z" />
    <glyph glyph-name="infinity" unicode="&#x221e;" horiz-adv-x="749" 
d="M213 97q-74 0 -123 44.5t-49 113.5q0 68 50.5 112.5t125.5 44.5q86 0 157 -76q73 76 158 76q75 0 125.5 -44.5t50.5 -112.5q0 -69 -49 -113.5t-123 -44.5q-88 0 -162 79q-74 -79 -161 -79zM527 306q-43 0 -86 -50q43 -52 88 -52q26 0 42.5 14.5t16.5 37.5q0 22 -17.5 36
t-43.5 14zM222 306q-26 0 -43.5 -14t-17.5 -36q0 -23 16.5 -37.5t42.5 -14.5q45 0 88 52q-43 50 -86 50z" />
    <glyph glyph-name="infinity" unicode="&#xe9be;" horiz-adv-x="749" 
d="M213 97q-74 0 -123 44.5t-49 113.5q0 68 50.5 112.5t125.5 44.5q86 0 157 -76q73 76 158 76q75 0 125.5 -44.5t50.5 -112.5q0 -69 -49 -113.5t-123 -44.5q-88 0 -162 79q-74 -79 -161 -79zM527 306q-43 0 -86 -50q43 -52 88 -52q26 0 42.5 14.5t16.5 37.5q0 22 -17.5 36
t-43.5 14zM222 306q-26 0 -43.5 -14t-17.5 -36q0 -23 16.5 -37.5t42.5 -14.5q45 0 88 52q-43 50 -86 50z" />
    <glyph glyph-name="integral" unicode="&#x222b;" horiz-adv-x="486" 
d="M41 -84q1 22 17 38t39 16q24 0 40.5 -16.5t16.5 -39.5q0 -10 -3 -19q29 13 29 107q0 22 -3.5 179t-4.5 207q-3 292 174 292q38 0 68.5 -26t30.5 -64q-1 -22 -17 -38t-39 -16q-24 0 -40 16.5t-16 39.5q0 10 3 19q-29 -14 -29 -107q0 -22 3.5 -179t4.5 -207
q3 -292 -174 -292q-35 0 -67.5 28t-32.5 62z" />
    <glyph glyph-name="integral" unicode="&#xe9bf;" horiz-adv-x="486" 
d="M41 -84q1 22 17 38t39 16q24 0 40.5 -16.5t16.5 -39.5q0 -10 -3 -19q29 13 29 107q0 22 -3.5 179t-4.5 207q-3 292 174 292q38 0 68.5 -26t30.5 -64q-1 -22 -17 -38t-39 -16q-24 0 -40 16.5t-16 39.5q0 10 3 19q-29 -14 -29 -107q0 -22 3.5 -179t4.5 -207
q3 -292 -174 -292q-35 0 -67.5 28t-32.5 62z" />
    <glyph glyph-name="approxequal" unicode="&#x2248;" horiz-adv-x="532" 
d="M145 57l-104 38q7 72 38.5 110t95.5 38q41 0 96 -30.5t76 -30.5q39 0 40 62l104 -38q-7 -73 -38 -110t-94 -37q-37 0 -92 29.5t-82 29.5q-39 0 -40 -61zM41 294q7 71 38.5 109t95.5 38q41 0 96 -30.5t76 -30.5q39 0 40 61l104 -37q-7 -72 -38 -109.5t-94 -37.5
q-37 0 -92 30t-82 30q-39 0 -40 -61z" />
    <glyph glyph-name="approxequal" unicode="&#xe9c0;" horiz-adv-x="532" 
d="M145 57l-104 38q7 72 38.5 110t95.5 38q41 0 96 -30.5t76 -30.5q39 0 40 62l104 -38q-7 -73 -38 -110t-94 -37q-37 0 -92 29.5t-82 29.5q-39 0 -40 -61zM41 294q7 71 38.5 109t95.5 38q41 0 96 -30.5t76 -30.5q39 0 40 61l104 -37q-7 -72 -38 -109.5t-94 -37.5
q-37 0 -92 30t-82 30q-39 0 -40 -61z" />
    <glyph glyph-name="notequal" unicode="&#x2260;" horiz-adv-x="594" 
d="M41 225h163l41 58h-204v127h294l59 85h153l-60 -85h66v-127h-156l-40 -58h196v-129h-285l-68 -96h-153l67 96h-73v129z" />
    <glyph glyph-name="notequal" unicode="&#xe9c1;" horiz-adv-x="594" 
d="M41 225h163l41 58h-204v127h294l59 85h153l-60 -85h66v-127h-156l-40 -58h196v-129h-285l-68 -96h-153l67 96h-73v129z" />
    <glyph glyph-name="lessequal" unicode="&#x2264;" horiz-adv-x="594" 
d="M553 136l-512 124v126l512 124v-129l-337 -57l337 -59v-129zM41 128h512v-128h-512v128z" />
    <glyph glyph-name="lessequal" unicode="&#xe9c2;" horiz-adv-x="594" 
d="M553 136l-512 124v126l512 124v-129l-337 -57l337 -59v-129zM41 128h512v-128h-512v128z" />
    <glyph glyph-name="greaterequal" unicode="&#x2265;" horiz-adv-x="594" 
d="M41 510l512 -124v-126l-512 -124v129l337 59l-337 57v129zM41 0v128h512v-128h-512z" />
    <glyph glyph-name="greaterequal" unicode="&#xe9c3;" horiz-adv-x="594" 
d="M41 510l512 -124v-126l-512 -124v129l337 59l-337 57v129zM41 0v128h512v-128h-512z" />
    <glyph glyph-name="lozenge" unicode="&#x25ca;" horiz-adv-x="607" 
d="M304 502l-125 -189l125 -189l124 189zM304 716l262 -403l-262 -404l-263 404z" />
    <glyph glyph-name="lozenge" unicode="&#xe9c4;" horiz-adv-x="607" 
d="M304 502l-125 -189l125 -189l124 189zM304 716l262 -403l-262 -404l-263 404z" />
    <glyph glyph-name="NULL" horiz-adv-x="0" 
 />
    <glyph glyph-name="grave.case" horiz-adv-x="249" 
d="M-20 829q0 22 17 39t39 17q21 0 38 -15l125 -139h-125l-74 55q-20 20 -20 43z" />
    <glyph glyph-name="acute.case" horiz-adv-x="199" 
d="M44 731q119 133 119 134l5 5q17 15 38 15q23 0 39.5 -16.5t16.5 -39.5q0 -24 -19 -43l-74 -55h-125z" />
    <glyph glyph-name="circumflex.case" horiz-adv-x="395" 
d="M1 731l147 133q22 19 49 19q28 0 49 -19l148 -133h-129l-68 61l-67 -61h-129z" />
    <glyph glyph-name="dieresis.case" horiz-adv-x="366" 
d="M16 796q0 29 21 50t50 21t49.5 -21t20.5 -50t-20.5 -49.5t-49.5 -20.5t-50 20.5t-21 49.5zM281 726q-29 0 -50 20.5t-21 49.5t21 50t50 21q28 0 48.5 -21t20.5 -50t-20 -49.5t-49 -20.5z" />
    <glyph glyph-name="caron.case" horiz-adv-x="395" 
d="M1 877h129l68 -61l68 61h128l-146 -133q-22 -19 -50 -19q-29 0 -50 19z" />
    <glyph glyph-name="ring.case" horiz-adv-x="372" 
d="M186 596q-55 0 -93.5 39t-38.5 94t38.5 93.5t93.5 38.5t94 -38.5t39 -93.5t-39 -94t-94 -39zM139 729q0 -19 13.5 -33t33.5 -14t33.5 14t13.5 33t-13.5 33t-33.5 14t-33.5 -14t-13.5 -33z" />
    <glyph glyph-name="macron.case" horiz-adv-x="348" 
d="M324 747h-299v98h299v-98z" />
    <glyph glyph-name="breve.case" horiz-adv-x="330" 
d="M26 851h85q4 -17 20.5 -30t37.5 -13t38 13t21 30h85q-9 -51 -49.5 -85.5t-94.5 -34.5q-53 0 -93.5 34.5t-49.5 85.5z" />
    <glyph glyph-name="dotaccent.case" horiz-adv-x="345" 
d="M105 796q0 29 21 50t50 21t49.5 -21t20.5 -50t-20.5 -49.5t-49.5 -20.5t-50 20.5t-21 49.5z" />
    <glyph glyph-name="tilde.case" horiz-adv-x="366" 
d="M-2 734q19 115 125 115q34 0 70 -20.5t54 -20.5q23 0 43 21q18 20 36 20q26 0 37.5 -20.5t-1.5 -42.5q-15 -27 -45.5 -42t-63.5 -15q-36 0 -68 16q-6 3 -15.5 8t-13.5 7.5t-10.5 4.5t-12.5 2q-40 2 -46 -33h-89z" />
    <glyph glyph-name="hungarumlaut.case" horiz-adv-x="433" 
d="M9 746l109 133l4 3q3 4 7.5 7.5t13 6.5t18.5 3q24 0 40 -16t16 -40q0 -26 -19 -42l-75 -55h-114zM325 746h-114l109 133l4 3q3 4 7.5 7.5t13 6.5t18.5 3q24 0 40 -16t16 -40q0 -26 -19 -42z" />
    <glyph glyph-name="zero.tf" horiz-adv-x="632" 
d="M30 335q0 163 73.5 254t212.5 91t213 -91t74 -254q0 -162 -74 -254.5t-213 -92.5q-138 0 -212 92.5t-74 254.5zM194 431q-8 -45 -8 -96q0 -117 35 -175.5t95 -58.5q50 0 81 38zM316 567q-46 0 -77 -33l201 -288q6 39 6 88q0 118 -34.5 175.5t-95.5 57.5z" />
    <glyph glyph-name="one.tf" horiz-adv-x="632" 
d="M253 448h-152v123q87 0 125 17t63 80h115v-544h128v-124h-431v124h152v324z" />
    <glyph glyph-name="two.tf" horiz-adv-x="632" 
d="M60 125l43 31q49 35 77.5 55.5t80 62t80.5 72.5t52.5 70.5t23.5 71.5q0 37 -26.5 58t-65.5 21q-82 0 -102 -82l-138 50q27 69 92.5 107t154.5 38q105 0 171.5 -52t66.5 -143q0 -97 -80 -183t-236 -177h319v-125h-513v125z" />
    <glyph glyph-name="three.tf" horiz-adv-x="632" 
d="M56 140l138 50q12 -46 45.5 -67.5t78.5 -21.5q48 0 75.5 23t27.5 64q0 103 -187 103v106q86 0 132.5 24t46.5 68q0 37 -30 57.5t-74 20.5q-92 0 -109 -82l-137 50q28 73 97.5 109t157.5 36q101 0 174.5 -44.5t73.5 -128.5q0 -51 -27 -92t-66 -63q47 -18 75.5 -63.5
t28.5 -93.5q0 -99 -76.5 -153t-186.5 -54q-90 0 -159.5 38t-98.5 114z" />
    <glyph glyph-name="four.tf" horiz-adv-x="632" 
d="M32 252l325 416h152v-393h92v-134h-92v-141h-152v141h-325v111zM357 469l-160 -194h160v194z" />
    <glyph glyph-name="five.tf" horiz-adv-x="632" 
d="M308 -12q-89 0 -156 39t-98 112l132 48q25 -86 114 -86q54 0 87.5 31.5t33.5 88.5q0 58 -34 89t-84 31q-74 0 -110 -65l-135 50l42 342h447v-124h-321l-15 -125q49 35 133 35q96 0 165 -61.5t69 -171.5t-78 -171.5t-192 -61.5z" />
    <glyph glyph-name="six.tf" horiz-adv-x="632" 
d="M51 322q0 101 28 179t95 128.5t166 50.5q145 0 204 -97l-136 -49q-20 36 -78 36q-55 0 -87.5 -42t-32.5 -125q54 49 143 49q92 0 160 -67t68 -168q0 -103 -73 -166t-187 -63q-137 0 -203.5 91.5t-66.5 242.5zM212 220q0 -54 29.5 -86.5t78.5 -32.5q48 0 76.5 32t28.5 86
q0 53 -28.5 86t-77.5 33q-48 0 -77.5 -32t-29.5 -86z" />
    <glyph glyph-name="seven.tf" horiz-adv-x="632" 
d="M309 0h-175l271 543h-339v125h500v-125z" />
    <glyph glyph-name="eight.tf" horiz-adv-x="632" 
d="M316 -12q-122 0 -198.5 57.5t-76.5 161.5q0 59 28 98.5t86 71.5q-32 51 -32 110q0 81 54.5 137t138.5 56t138 -56t54 -137q0 -60 -33 -109q59 -33 87 -73t28 -99q0 -103 -76.5 -160.5t-197.5 -57.5zM198 206q0 -41 32.5 -66.5t85.5 -25.5q51 0 84 26t33 66
q0 41 -32.5 64.5t-84.5 23.5q-53 0 -85.5 -23.5t-32.5 -64.5zM316 555q-29 0 -49 -20t-20 -49q0 -28 20.5 -48.5t48.5 -20.5t47.5 20t19.5 49t-19.5 49t-47.5 20z" />
    <glyph glyph-name="nine.tf" horiz-adv-x="632" 
d="M77 441q0 98 69.5 168t167.5 70q99 0 170 -70.5t71 -169.5q0 -53 -24 -104l-162 -335h-160l108 202q-99 0 -169.5 69.5t-70.5 169.5zM212 431q4 -41 34.5 -68.5t70.5 -27.5q43 0 73.5 30.5t30.5 73.5q0 4 -1 6v5q-4 40 -34 67t-70 27h-9q-41 -4 -68 -34t-27 -70v-9z" />
    <glyph glyph-name="ogonek.case" horiz-adv-x="263" 
d="M175 -174q-73 0 -107.5 27.5t-34.5 61.5q0 60 80 85h141q-33 -4 -64 -24t-31 -44q0 -30 46 -30q13 0 49 9v-75q-30 -10 -79 -10z" />
    <glyph glyph-name="caron.salt" horiz-adv-x="205" 
d="M120 496h-80l24 145q4 22 20.5 34.5t35.5 12.5q24 0 39.5 -17.5t15.5 -39.5q0 -9 -3 -17z" />
    </font>
</defs>
</svg>
